查看: 25162|回复: 2155

[电影] [阿甘正传(国英)]Forrest.Gump.1994.BluRay.720p.DTS.x264-SCGHD[中英字幕/7.98G]

    [复制链接]

该用户从未签到

发表于 2016-8-2 11:33:33 | 显示全部楼层 |阅读模式
p1484728154.jpg

◆原  名:Forrest Gump
◆译  名:阿甘正传
◆类  型:剧情/喜剧
◆片  长:142 分钟
◆上  映:1994年
◆国  家:美国
◆语  言:英语
◆链  接:http://www.imdb.com/title/tt0109830
◆评  分:8.6/10 (262,366 votes) TOP250 #39
◆导  演:罗伯特·泽米基斯 Robert Zemeckis
◆编  剧:Winston Groom
      Eric Roth
◆演  员:埃尔维斯·普雷斯利 Elvis Presley .... Himself (uncredited) (archive footage)
      汤姆·汉克斯 Tom Hanks .... Forrest Gump
      莎莉·菲尔德 Sally Field .... Mrs. Gump
      库尔特·拉塞尔 Kurt Russell .... Elvis Presley (uncredited) (voice)
      加里·辛尼斯 Gary Sinise .... Lt. Dan Taylor
      罗宾·莱特·潘 Robin Wright Penn .... Jenny Curran
      Bob Hope .... Himself (in Vietnam) (uncredited) (archive footage)
      Ronald Reagan .... Himself (uncredited) (archive footage)
      Steven Griffith .... Tex
      Gerald Ford .... Himself (uncredited) (archive footage)
      海利·乔·奥斯蒙特 Haley Joel Osment .... Forrest Gump Jr.
      John Lennon .... Himself (uncredited) (archive footage)
      Rob Adams .... College Quarterback (uncredited)
      乔·阿尔斯基 Joe Alaskey .... President Richard Nixon (voice)
      Sam Anderson .... Principal
◆简  介:
  阿甘是个智商只有75的低能儿。在学校里为了躲避别的孩子的欺侮,听从一个朋友珍妮的话而开始“跑”。他跑着躲避别人的捉弄。在中学时,他为了躲避别人而跑进了一所学校的橄榄球场,就这样跑进了大学。阿甘被破格录取,并成了橄榄球巨星,受到了肯尼迪总统的接见。
  在大学毕业后,阿甘又应征入伍去了越南。在那里,他有了两个朋友:热衷捕虾的布巴和令人敬畏的长官邓·泰勒上尉。这时,珍妮已经堕落,过着放荡的生活。甘一直爱着珍妮,但珍妮却不爱他。在战争结束后,甘作为英雄受到了约翰逊总统的接见。在一次和平集会上,甘又遇见了珍妮,两人匆匆相遇又匆匆分手。在“说到就要做到”这一信条的指引下,甘最终闯出了一片属于自己的天空。在他的生活中,他结识了许多美国的名人。他告发了水门事件的窃听者,作为美国乒乓球队的一员到了中国,为中美建交立下了功劳。猫王和约翰·列侬这两位音乐巨星也是通过与他的交往而创作了许多风靡一时的歌曲。最后,甘通过捕虾成了一名企业家。为了纪念死去的布巴,他成立了布巴·甘公司,并把公司的一半股份给了布巴的母亲,自己去做一名园丁。甘经历了世界风云变幻的各个历史时期,但无论何时,无论何处,无论和谁在一起,他都依然如故,纯朴而善良。
  在隐居生活中,他时常思念珍妮。而这时的珍妮早已误入歧途, 陷于绝望之中。 终于有一天,珍妮回来了。她和甘共同生活了一段日子。在一天夜晚,珍妮投入了阿甘的怀抱,之后又在黎明悄然离去。醒来的甘木然坐在门前的长椅上,然后突然开始奔跑。他跑步横越了美国,又一次成了名人。在奔跑了许久之后,甘停了下来,开始回自己的故乡。在途中, 他收到了珍妮的信。 他又一次见到了珍妮,还有一个小男孩,那是他的儿子。这时的珍妮已经得了一种不治之症。甘和珍妮三人一同回到了家乡,一起度过了一段幸福的时光。
  珍妮过世了,他们的儿子也已到了上学的年龄。甘送儿子上了校车,坐在公共汽车站的长椅上,回忆起了他一生的遭遇。
[一句话评论]
The world will never be the same once you've seen it through the eyes of Forrest Gump.
Life is like a box of chocolates...you never know what you're gonna get.
可以说《阿甘正传》是权威级的美国电影。
——BBC
[幕后制作]
  影片改编自温斯顿·格鲁姆的同名小说。阿甘是一个美国人的典型,他的身上凝聚着美国的国民性,而且他还参与或见证了美国50年代以来的重大历史事件。阿甘见证了黑人民权运动,上了越战前线,目击了水门事件,参与了开启中美外交新纪元的乒乓球比赛;在流行文化方面,他是猫王最著名舞台动作的老师,启发了约翰·列侬最著名的歌曲,在长跑中发明了80年代美国最著名的口号。影片的表层是阿甘的自传,由他慢慢讲述。阿甘的所见所闻所言所行不仅具有高度的代表性,而且是对历史的直接图解。这种视觉化的比喻在影片的第一个镜头中得到生动的暗示:一根羽毛飘飘荡荡,吹过民居和马路,最后落到阿甘的脚下,优雅却平淡无奇,随意而又有必然性。汤姆·汉克斯把阿甘从历史的投影变为实实在在、有血有肉的人。阿甘是一个占据着成年人躯体的幼童、一个圣贤级的傻子、一个超越真实的普通人、一个代表着民族个性的小人物。名言:人生就像一盒巧克力。影片获奥斯卡最佳影片、最佳导演等多项大奖。
[花絮]
·约翰·特拉沃塔、比尔·默里曾被考虑出演阿甘。
·拍摄时Gary Sinise(丹中尉)的腿是用蓝布包着的,这样在后期制作时可以用电脑去除。
·片中汤姆·汉克斯忘我地长跑时,他的弟弟吉姆经常在旁边伴跑。
·汤姆·汉克斯演阿甘时模仿了饰演小阿甘的Michael Conner Humphreys的口音。
·拍摄橄榄球赛的奔跑戏时,汤姆·汉克斯正患着流感。
·拍摄结束后,阿甘坐的那个公园长椅被移进了乔治亚的Savannah历史博物馆,以免因天气受到损害。
·丹中尉对出租车说"I'm walking here!",是对电影《午夜牛郎》的致敬,当时的背景音乐《Everybody's Talkin'》也出自这部电影。
·阿甘每个时代出场的不变标志是:一件蓝色格子花呢衬衫。
·大门乐队的歌在影片中用的比任何一支乐队都多,一共有6首。
·华纳兄弟在1988年曾放弃了拍摄本片的机会,因为觉得它跟《雨人》(1988年)题材类似。
·校车里那个红头发女孩是汤姆·汉克斯的女儿伊利莎白。第一个不让阿甘上校车的男孩是导演的儿子亚历山大。
·特瑞·吉列姆曾拒绝执导本片。
·巴里·索南菲尔德曾有望执导本片。
·大卫·阿兰·格里尔(David Alan Grier)、大卫·查普尔、艾斯·库珀都曾拒绝扮演布巴。
·切维·切斯曾拒绝扮演阿甘。
·片中的Bayou le Batre医院其实是南卡罗莱纳大学的波弗特表演艺术中心。
·片中所有的静态照片中,阿甘都闭着眼睛。
·汤姆·汉克斯曾提出出演本片的前提条件,那就是片中发生的故事必须是曾经真实发生过的。
·扮演阿甘母亲的莎莉·菲尔德只比汤姆·汉克斯大10岁。
·当阿甘在华盛顿的集会上讲话时,麦克风插头被拔掉,观众无法听到他讲话的内容,当时他说的是:“Sometimes when people go to Vietnam, they go home to their mommas without any legs。 Sometimes they don't go home at all。 That's a bad thing。 That's all I have to say about that。”
·片中所有约翰·列农的对话都出自他的歌曲《Imagine》。
·珍妮在夜总会中演唱的歌曲是鲍勃·迪伦的《Blowin‘ In The Wind》。
·片中所有航海场景都在南卡罗莱纳的海岸拍摄,飓风是由喷气引擎形成的。
·当阿甘报告水门事件时,电话中应答的警卫确实是当晚值班的警卫,而且正是他发现了非法闯入。
·片中阿甘被授予国会荣誉勋章的镜头是真实拍摄的,当时被真正表彰的是赛米L·戴维斯中士。
·片中阿甘说的“Mama always said life was like a box of chocolates.You never know what you're gonna get”在美国电影学会评选的“百佳电影台词”排行榜中名列第四十位。
·在乒乓球赛的场景中,其实根本没有球,画面中的乒乓球是用CGI技术生成的。


D:\阿甘正传(国英) 720P-SCG.mkv
   General
      Complete name : D:\阿甘正传(国英) 720P-SCG.mkv
      Format : Matroska
      File size : 7.98 GiB
      Duration : 2h 22mn
      Overall bit rate : 8 037 Kbps
      Encoded date : UTC 2010-08-21 07:59:56
      Writing application : mkvmerge v2.9.8 ('C'est le bon') built on Aug 13 2009 12:49:06
      Writing library : libebml v0.7.7 + libmatroska v0.8.1
   Video #1
      ID : 1
      Format : AVC
      Format/Info : Advanced Video Codec
      Format profile : High@L4.1
      Format settings, CABAC : Yes
      Format settings, ReFrames : 7 frames
      Muxing mode : Container profile=Unknown@4.1
      Codec ID : V_MPEG4/ISO/AVC
      Duration : 2h 22mn
      Bit rate : 6 143 Kbps
      Nominal bit rate : 6 304 Kbps
      Width : 1 280 pixels
      Height : 544 pixels
      Display aspect ratio : 2.35:1
      Frame rate : 23.976 fps
      Resolution : 8 bits
      Colorimetry : 4:2:0
      Scan type : Progressive
      Bits/(Pixel*Frame) : 0.368
      Stream size : 6.09 GiB (76%)
      Writing library : x264 core 98 r1649 c54c47d
      Encoding settings : cabac=1 / ref=8 / deblock=1:-3:-2 / analyse=0x3:0x113 / me=umh / subme=10 / psy=1 / psy_rd=1.00:0.10 / mixed_ref=1 / me_range=32 / chroma_me=1 / trellis=2 / 8x8dct=1 / cqm=0 / deadzone=21,11 / fast_pskip=0 / chroma_qp_offset=-2 / threads=6 / sliced_threads=0 / nr=0 / decimate=0 / interlaced=0 / constrained_intra=0 / bframes=3 / b_pyramid=1 / b_adapt=2 / b_bias=0 / direct=1 / weightb=1 / weightp=2 / keyint=250 / keyint_min=25 / scenecut=40 / intra_refresh=0 / rc_lookahead=40 / rc=2pass / mbtree=1 / bitrate=6304 / ratetol=1.0 / qcomp=0.60 / qpmin=10 / qpmax=51 / qpstep=4 / cplxblur=20.0 / qblur=0.5 / ip_ratio=1.40 / aq=1:1.00
      Language : English
   Audio #2
      ID : 2
      Format : DTS
      Format/Info : Digital Theater Systems
      Codec ID : A_DTS
      Duration : 2h 22mn
      Bit rate mode : Constant
      Bit rate : 1 510 Kbps
      Channel(s) : 6 channels
      Channel positions : Front: L C R, Surround: L R, LFE
      Sampling rate : 48.0 KHz
      Resolution : 24 bits
      Stream size : 1.50 GiB (19%)
      Title : 英语
   Audio #3
      ID : 3
      Format : AC-3
      Format/Info : Audio Coding 3
      Codec ID : A_AC3
      Duration : 2h 22mn
      Bit rate mode : Constant
      Bit rate : 224 Kbps
      Channel(s) : 2 channels
      Channel positions : L R
      Sampling rate : 48.0 KHz
      Stream size : 228 MiB (3%)
      Title : 国语
      Language : Chinese



VIP下载地址
游客,贵宾VIP优先下载立即开通

VIP特权:VIP影视库、优先观看、无广告、免回复、免费下载、专属客服 ... 更多特权





下载地址
游客,如果您要查看本帖隐藏内容请回复,如果您想无广告、免回复、免费下载附件 请开通VIP

评分

参与人数 5影币 +140 收起 理由
大橡皮 + 10 谢谢你,圣城有你更精彩
manson749 + 10 谢谢你,圣城有你更精彩
gsek12 + 10 谢谢你,圣城有你更精彩
林业成 + 100 我有钱,任性撒钱
alfine + 10 我有钱,任性撒钱

查看全部评分

最新回复

签到天数: 1508 天

发表于 2016-8-2 11:34:37 | 显示全部楼层
谢谢分享,下来看看!

签到天数: 1017 天

发表于 2016-8-2 11:37:57 | 显示全部楼层
thanks a lot

签到天数: 480 天

发表于 2016-8-2 11:47:30 | 显示全部楼层
谢谢分享!!

该用户从未签到

发表于 2016-8-2 11:47:59 | 显示全部楼层
谢谢分享。

该用户从未签到

发表于 2016-8-2 11:55:30 | 显示全部楼层
下来看看!

签到天数: 1 天

发表于 2016-8-2 11:58:20 | 显示全部楼层
谢谢分享!

签到天数: 104 天

发表于 2016-8-2 11:58:39 | 显示全部楼层
谢谢楼主分享。

签到天数: 65 天

发表于 2016-8-2 12:01:58 | 显示全部楼层
很不错的片子,,不过遗憾的是,《肖申克的救赎》和这片撞车了,否则两部都能得最佳影片

该用户从未签到

发表于 2016-8-2 12:04:05 | 显示全部楼层
感谢楼主的分享!

该用户从未签到

发表于 2016-8-2 12:07:10 | 显示全部楼层
可以洗版了,多谢啦。

该用户从未签到

发表于 2016-8-2 12:13:43 | 显示全部楼层
我来下载看看

签到天数: 48 天

发表于 2016-8-2 12:22:25 | 显示全部楼层
支持了!!!!!!

签到天数: 18 天

发表于 2016-8-2 12:23:23 | 显示全部楼层
thanks a lot

该用户从未签到

发表于 2016-8-2 12:24:01 | 显示全部楼层
经典,收下了,谢谢分享

24小时最新

Top10精品合集

原创推荐

赞助广告

快捷回复 换一组
您需要登录后才可以回帖 登录 | 立即注册

快速回复 返回顶部 返回列表