查看: 7656|回复: 975

[电影] [建国大业]The.Founding.of.A.Republic.2009.720p.BluRay.x264.AC3-CnSCG

    [复制链接]

该用户从未签到

发表于 2017-4-20 23:43:16 | 显示全部楼层 |阅读模式
p2099878917.jpg

建国大业 (2009)

导演: 韩三平 / 黄建新
编剧: 王兴东 / 陈宝光
主演: 唐国强 / 张国立 / 许晴 / 刘劲 / 陈坤 / 更多...
类型: 剧情 / 历史
制片国家/地区: 中国大陆 / 香港
语言: 汉语普通话 / 英语 / 粤语
上映日期: 2009-09-16(中国大陆)
片长: 138分钟
又名: The Founding of a Republic
IMDb链接: tt1438461

  在抗战结束之后,各阶级、各党派、广大人民群众反战情绪高涨。于是,在民主爱国人士张澜等人的斡旋下,毛泽东(唐国强 饰)代表的共产党与蒋介石(张国立 饰)代表的国民党拉开了重庆谈判的序幕。为了表示诚意,共产党主动放弃了部分占领的解放区,然而,国民党却丝毫没有建立民主政府的意思,反而驱赶民主党派,逐渐走向了军政府独裁统治的灭亡之路。
  期间,以毛泽东为首的共产党人通过建立广泛的爱国统一战线,获得了全中国人民群众的支持,为中国人民政治协商会议的召开奠定了扎实的基础,与此同时,垂死挣扎的国民党仍妄图借助阴谋暗杀等卑劣手段阻挠会议召开,一场为建立新中国的决战由此展开……
  本片汇集了史无前例的172位国内明星,开创了新时期主旋律题材的先河。

  1. General
  2. Unique ID                      : 242602821214943036774913341865471724555 (0xB6839A9271D53D2482AD2FB70FC74C0B)
  3. Complete name                  : D:\成品\[建国大业]The.Founding.of.A.Republic.2009.720p.BluRay.x264.AC3-CnSCG\[Cnscg.com]建国大业.The.Founding.of.A.Republic.2009.720p.BluRay.x264.AC3.mkv
  4. Format                         : Matroska
  5. Format version                 : Version 4 / Version 2
  6. File size                      : 4.00 GiB
  7. Duration                       : 2h 20mn
  8. Overall bit rate               : 4 067 Kbps
  9. Encoded date                   : UTC 2017-04-20 15:06:23
  10. Writing application            : mkvmerge v6.5.0 ('Isn't she lovely') built on Oct 20 2013 12:50:05
  11. Writing library                : libebml v1.3.0 + libmatroska v1.4.1

  12. Video
  13. ID                             : 1
  14. Format                         : AVC
  15. Format/Info                    : Advanced Video Codec
  16. Format profile                 : High@L4.1
  17. Format settings, CABAC         : Yes
  18. Format settings, ReFrames      : 8 frames
  19. Codec ID                       : V_MPEG4/ISO/AVC
  20. Duration                       : 2h 20mn
  21. Bit rate                       : 3 427 Kbps
  22. Width                          : 1 280 pixels
  23. Height                         : 720 pixels
  24. Display aspect ratio           : 16:9
  25. Frame rate mode                : Constant
  26. Frame rate                     : 23.976 (24000/1001) fps
  27. Color space                    : YUV
  28. Chroma subsampling             : 4:2:0
  29. Bit depth                      : 8 bits
  30. Scan type                      : Progressive
  31. Bits/(Pixel*Frame)             : 0.155
  32. Stream size                    : 3.29 GiB (82%)
  33. Writing library                : x264 core 148 r2638 7599210
  34. Encoding settings              : cabac=1 / ref=9 / deblock=1:-3:-3 / analyse=0x3:0x113 / me=umh / subme=11 / psy=1 / psy_rd=1.00:0.00 / mixed_ref=1 / me_range=32 / chroma_me=1 / trellis=2 / 8x8dct=1 / cqm=0 / deadzone=21,11 / fast_pskip=1 / chroma_qp_offset=-5 / threads=3 / lookahead_threads=1 / sliced_threads=0 / nr=0 / decimate=1 / interlaced=0 / bluray_compat=0 / constrained_intra=0 / bframes=2 / b_pyramid=1 / b_adapt=2 / b_bias=0 / direct=1 / weightb=1 / open_gop=0 / weightp=2 / keyint=240 / keyint_min=23 / scenecut=40 / intra_refresh=0 / rc_lookahead=40 / rc=2pass / mbtree=1 / bitrate=3427 / ratetol=1.0 / qcomp=0.60 / qpmin=10 / qpmax=51 / qpstep=4 / cplxblur=20.0 / qblur=0.5 / vbv_maxrate=50000 / vbv_bufsize=50000 / nal_hrd=none / filler=0 / ip_ratio=1.40 / aq=1:1.00
  35. Default                        : Yes
  36. Forced                         : No
  37. Statistics Tags Issue          : mkvmerge v8.5.2 ('Crosses') 32bit 2017-04-18 21:21:20 / mkvmerge v6.5.0 ('Isn't she lovely') built on Oct 20 2013 12:50:05 2017-04-20 15:06:23
  38. FromStats_BitRate              : 3425517
  39. FromStats_Duration             : 02:20:40.307000000
  40. FromStats_FrameCount           : 202365
  41. FromStats_StreamSize           : 3614052572

  42. Audio
  43. ID                             : 2
  44. Format                         : AC-3
  45. Format/Info                    : Audio Coding 3
  46. Mode extension                 : CM (complete main)
  47. Format settings, Endianness    : Big
  48. Codec ID                       : A_AC3
  49. Duration                       : 2h 20mn
  50. Bit rate mode                  : Constant
  51. Bit rate                       : 640 Kbps
  52. Channel(s)                     : 6 channels
  53. Channel positions              : Front: L C R, Side: L R, LFE
  54. Sampling rate                  : 48.0 KHz
  55. Frame rate                     : 31.250 fps (1536 spf)
  56. Compression mode               : Lossy
  57. Stream size                    : 644 MiB (16%)
  58. Default                        : Yes
  59. Forced                         : No
复制代码





VIP下载地址
游客,贵宾VIP优先下载立即开通

VIP特权:VIP影视库、优先观看、无广告、免回复、免费下载、专属客服 ... 更多特权




下载地址
游客,如果您要查看本帖隐藏内容请回复,如果您想无广告、免回复、免费下载附件 请开通VIP

评分

参与人数 1影币 +10 收起 理由
hljwsq + 10 可惜没有字幕,只有25秒的水印

查看全部评分

最新回复

签到天数: 370 天

发表于 2017-4-20 23:57:42 | 显示全部楼层
学习中国历史的好材料,谢谢分享!

签到天数: 831 天

发表于 2017-4-21 00:04:47 | 显示全部楼层
期待“建军大业”

签到天数: 5 天

发表于 2017-4-21 00:17:25 | 显示全部楼层
感谢楼主分享

该用户从未签到

发表于 2017-4-21 00:22:10 | 显示全部楼层
感谢楼主分享~~

该用户从未签到

发表于 2017-4-21 00:29:54 | 显示全部楼层
觉得富士康的价格的空间更大司空见惯的司空见惯

签到天数: 383 天

发表于 2017-4-21 00:30:59 | 显示全部楼层
马上要出第三部了!

该用户从未签到

发表于 2017-4-21 00:42:52 | 显示全部楼层
学习中国历史的好材料,谢谢分享!

该用户从未签到

发表于 2017-4-21 00:44:40 | 显示全部楼层
感谢分享。。。

签到天数: 1 天

发表于 2017-4-21 00:49:41 | 显示全部楼层
谢谢分享~~~~~~~~~~~~~

签到天数: 6 天

发表于 2017-4-21 01:05:28 | 显示全部楼层
看看怎么样

签到天数: 236 天

发表于 2017-4-21 01:06:17 | 显示全部楼层
重温一下这部明星云集的电影。

签到天数: 8 天

发表于 2017-4-21 01:07:40 | 显示全部楼层
不错的!支持支持!!!

签到天数: 52 天

发表于 2017-4-21 01:08:28 | 显示全部楼层
谢谢分享   

签到天数: 1343 天

发表于 2017-4-21 01:17:57 | 显示全部楼层
谢谢分享!!

24小时最新

Top10精品合集

原创推荐

赞助广告

快捷回复 换一组
您需要登录后才可以回帖 登录 | 立即注册

快速回复 返回顶部 返回列表