查看: 10509|回复: 832

[电影] [殉道者杀手]Let.Me.Make.You.a.Martyr.2016.720p.BluRay.x264.AC3-CnSCG[中英字幕/2.95G]

[复制链接]

该用户从未签到

发表于 2017-9-9 20:52:14 | 显示全部楼层
推荐下载工具
提示:如遇迅雷下载提示"任务出错"、"因版权无法下载",这是迅雷出的问题,请更换上面下载工具即可!
本帖最后由 上官凌宇 于 2017-9-10 16:40 编辑

a.jpg

导演: John Swab / Corey Asraf
编剧: Corey Asraf / John Swab
主演: 玛丽莲·曼森 / 小马克·布恩 / 迈克尔·波茨 / 威廉姆·李·斯科特 / 迈克尔·肖姆斯·维尔斯 / 更多...
类型: 剧情 / 动作 / 犯罪
制片国家/地区: 美国
语言: 英语
上映日期: 2016-07-22(加拿大奇幻电影节) / 2017(美国)
片长: 102分钟
IMDb链接: tt3699372


殉道者杀手的剧情简介:
  A cerebral revenge film about two adopted siblings who fall in love, and hatch a plan to kill their abusive father.

  1. General
  2. Unique ID                      : 233247112226397285236729518386077243710 (0xAF79C281752818DBB21E5CFC0890193E)
  3. Complete name                  : F:\压片-成品\[殉道者杀手]Let.Me.Make.You.a.Martyr.2016.720p.BluRay.x264.AC3-CnSCG\[Cnscg.com]殉道者杀手.Let.Me.Make.You.a.Martyr.2016.720p.BluRay.x264.AC3-CnSCG.mkv
  4. Format                         : Matroska
  5. Format version                 : Version 4 / Version 2
  6. File size                      : 2.95 GiB
  7. Duration                       : 1h 41mn
  8. Overall bit rate               : 4 143 Kbps
  9. Encoded date                   : UTC 2017-09-09 11:18:29
  10. Writing application            : mkvmerge v6.5.0 ('Isn't she lovely') built on Oct 20 2013 12:50:05
  11. Writing library                : libebml v1.3.0 + libmatroska v1.4.1

  12. Video
  13. ID                             : 1
  14. Format                         : AVC
  15. Format/Info                    : Advanced Video Codec
  16. Format profile                 : High@L4.1
  17. Format settings, CABAC         : Yes
  18. Format settings, ReFrames      : 8 frames
  19. Codec ID                       : V_MPEG4/ISO/AVC
  20. Duration                       : 1h 41mn
  21. Bit rate                       : 3 500 Kbps
  22. Width                          : 1 280 pixels
  23. Height                         : 720 pixels
  24. Display aspect ratio           : 16:9
  25. Frame rate mode                : Constant
  26. Frame rate                     : 23.976 (24000/1001) fps
  27. Color space                    : YUV
  28. Chroma subsampling             : 4:2:0
  29. Bit depth                      : 8 bits
  30. Scan type                      : Progressive
  31. Bits/(Pixel*Frame)             : 0.158
  32. Stream size                    : 2.44 GiB (83%)
  33. Writing library                : x264 core 148 r2638 7599210
  34. Encoding settings              : cabac=1 / ref=9 / deblock=1:-3:-3 / analyse=0x3:0x113 / me=umh / subme=11 / psy=1 / psy_rd=1.00:0.00 / mixed_ref=1 / me_range=32 / chroma_me=1 / trellis=2 / 8x8dct=1 / cqm=0 / deadzone=21,11 / fast_pskip=1 / chroma_qp_offset=-5 / threads=6 / lookahead_threads=1 / sliced_threads=0 / nr=0 / decimate=1 / interlaced=0 / bluray_compat=0 / constrained_intra=0 / bframes=2 / b_pyramid=1 / b_adapt=2 / b_bias=0 / direct=1 / weightb=1 / open_gop=0 / weightp=2 / keyint=240 / keyint_min=23 / scenecut=40 / intra_refresh=0 / rc_lookahead=40 / rc=2pass / mbtree=1 / bitrate=3500 / ratetol=1.0 / qcomp=0.60 / qpmin=10 / qpmax=51 / qpstep=4 / cplxblur=20.0 / qblur=0.5 / vbv_maxrate=50000 / vbv_bufsize=50000 / nal_hrd=none / filler=0 / ip_ratio=1.40 / aq=1:1.00
  35. Default                        : Yes
  36. Forced                         : No
  37. Statistics Tags Issue          : mkvmerge v8.5.2 ('Crosses') 32bit 2017-09-04 19:33:32 / mkvmerge v6.5.0 ('Isn't she lovely') built on Oct 20 2013 12:50:05 2017-09-09 11:18:29
  38. FromStats_BitRate              : 3500693
  39. FromStats_Duration             : 01:41:58.905000000
  40. FromStats_FrameCount           : 146707
  41. FromStats_StreamSize           : 2677551167

  42. Audio
  43. ID                             : 2
  44. Format                         : AC-3
  45. Format/Info                    : Audio Coding 3
  46. Mode extension                 : CM (complete main)
  47. Format settings, Endianness    : Big
  48. Codec ID                       : A_AC3
  49. Duration                       : 1h 41mn
  50. Bit rate mode                  : Constant
  51. Bit rate                       : 640 Kbps
  52. Channel(s)                     : 6 channels
  53. Channel positions              : Front: L C R, Side: L R, LFE
  54. Sampling rate                  : 48.0 KHz
  55. Frame rate                     : 31.250 fps (1536 spf)
  56. Compression mode               : Lossy
  57. Stream size                    : 467 MiB (15%)
  58. Default                        : Yes
  59. Forced                         : No

  60. Text
  61. ID                             : 3
  62. Format                         : ASS
  63. Codec ID                       : S_TEXT/ASS
  64. Codec ID/Info                  : Advanced Sub Station Alpha
  65. Compression mode               : Lossless
  66. Default                        : Yes
  67. Forced                         : No
复制代码





VIP下载地址
游客,贵宾VIP优先下载立即开通

VIP特权:VIP影视库、优先观看、无广告、免回复、免费下载、专属客服 ... 更多特权




下载地址
游客,如果您要查看本帖隐藏内容请回复,如果您想无广告、免回复、免费下载附件 请开通VIP

最新回复

签到天数: 106 天

发表于 2017-9-9 21:00:11 | 显示全部楼层
路上司机多,资源不翻车

签到天数: 12 天

发表于 2017-9-9 21:01:00 | 显示全部楼层
路上司机多,资源不翻车

签到天数: 1445 天

发表于 2017-9-9 21:01:09 | 显示全部楼层
沙发是我的,下载第一个

该用户从未签到

发表于 2017-9-9 21:05:05 | 显示全部楼层
路上司机多,资源不翻车

签到天数: 546 天

发表于 2017-9-9 21:06:11 | 显示全部楼层
玛丽莲·曼森主演的电影呀!

签到天数: 1155 天

发表于 2017-9-9 21:09:48 | 显示全部楼层
这个资源厉害了

签到天数: 109 天

发表于 2017-9-9 21:14:51 | 显示全部楼层
看看如何,

签到天数: 442 天

发表于 2017-9-9 21:15:57 | 显示全部楼层
这么好的资源,你是要上天吗

签到天数: 980 天

发表于 2017-9-9 21:18:58 | 显示全部楼层
仇杀和爱情之类的片子吗

签到天数: 1 天

发表于 2017-9-9 21:22:28 | 显示全部楼层
下载超过2M/S,本神此处留名

该用户从未签到

发表于 2017-9-9 21:27:20 | 显示全部楼层
谢谢楼主辛苦了

签到天数: 1 天

发表于 2017-9-9 21:31:47 | 显示全部楼层
感谢楼主分享

签到天数: 48 天

发表于 2017-9-9 21:35:46 | 显示全部楼层
城市套路深,我要回农村

签到天数: 14 天

发表于 2017-9-9 21:37:45 | 显示全部楼层
农村道路滑,形式更复杂

您可能喜欢

24小时最新

圣城家园精选

电影合集

下一页 »
返回列表 发新帖
快捷回复 换一组
您需要登录后才可以回帖 登录 | 立即注册

快速回复 返回顶部 返回列表