圣城家园 - BT下载 720P 1080P高清电影下载|字幕组|中英字幕|电视剧|美剧|迅雷下载|高清电影|日剧|韩剧|动漫|游戏|最新电影大片下载

发布新帖
乐于分享,把你的资源分享给全世界!
查看: 22432|回复: 1411

[喜剧] [春光乍泄].Happy.Together.1997.720p.BluRay.x264.AC3-SCG[粤语中字/2.05G]

  [复制链接]

该用户从未签到

发表于 2010-6-12 06:27:41 | 显示全部楼层 |阅读模式
本帖最后由 高清电影补档 于 2017-3-19 15:31 编辑

春光乍泄.jpg
【影片原名】Chun gwong cha sit
【外文别名】"Happy Together" - Hong Kong (English title), USA
      "Buenos Aires Affair" - International (English title)
【中文译名】春光乍洩/春光乍泄
【出品公司】Block 2 Pictures
【出品年代】1997 年
【上映日期】1997年5月30日 香港         
【IMDB链接】http://www.imdb.com/title/tt0118845/
【IMDB评分】7.5/10 (6,324 votes)
【国  家】中国香港
【类  别】喜剧/剧情/爱情
【影片长度】96 Mins
【对白语言】粤语/普通话/西班牙语
【导  演】王家卫 Kar Wai Wong
【主  演】张国荣 Leslie Cheung....Ho Po-wing
      梁朝伟 Tony Leung....Lai Yiu-fai
      张震 Zhen Zhang....Chang
      关淑怡 Shirley Kwan....(scenes cut)
      Gregory Dayton ....Lover

【内容简介】

     黎耀辉(梁朝伟)与何宝荣(张国荣)是一对同性恋人,两人同往阿根廷游玩。他们从地摊上买回一盏旧台灯,灯罩上的那条瀑布令两人心驰神往,于是相约一起去寻找。好景不长,两人发生争执进而分手,荣丢下一句“让我们从头开始”,消失在茫茫人海之中。辉在小酒馆做侍者,而荣则夤夜不归勾搭洋人同志。其实两人的心中仍旧彼此牵挂。某夜,浑身是伤的荣找到辉的住处,他为了偷手表送给辉而被暴打。双手受伤的荣无法自理,只得留在辉的住所。于是辉每日为荣做饭、疗伤,悉心照料之下,两人得以重修旧好。伤愈后的荣又经常夜出,辉怀疑他另有新欢。争吵之后,荣离家而去,从此再也没有与辉见面。辉去一家餐馆当厨师,结识了周游世界的张宛(张震)。辉对宛渐生情意,孰料宛却突然要去美洲的最南端云游,分手之时,两人紧紧拥抱。

     辉的生活失去了方向,迷茫之下他又想起那句话:“让我们从头开始”。辉于是买车去寻找那条本应是荣与他共游的瀑布。大瀑布下,辉倍感孤单,决定返回香港。途中他绕道去了台北张宛的家,在那里他有所领悟,要开开心心地在外流浪,就要有一个地方可以回去……

幕后制作

     影片描写男人之间的爱情,无论是感情的起浮波折还是调情、斗气和男女之间的爱情一样炽烈感人,十分纯真,完全摆脱了性别枷锁。写情动人有力,二人的爱恨纠缠,亲密中难舍难弃又互相折磨。对白、处境、性格表现处处见彩。影像成就无人能及。从开始的凌厉高反差黑白摄影开始,到红色的运用,灯光色彩与人物心情气氛的对应,观众无法逃脱。省略性叙事使片子显出欲说还休的况味。到布宜诺斯艾利斯的追逐,有公路片的意涵:寻找自我,逃避自我。情人困室犹斗让我们想起《十三个月亮》(法斯宾德,In a year of Thirteen Moons,1978)、《爱比死更冷》(Love Is Colder than Death, 1969)。《春光乍泄》中的三个“无脚鸟”男人因为没有脚,必须不停地飞,直到力竭而死。张震的台词可以概括出他们自我放逐者的心态:“没有去过的地方才好玩”,“能走多远就走多远吧。” 这种与生俱来的疏离感、青春的忧伤、对无限的渴望以及注定失落的命运和“不如从头开始、”不如归去、“到了尽头,我想回家。”的无奈由画面得到呈现。

精彩对白

     当我站在瀑布前,觉得非常的难过,我总觉得,应该是两个人站在这里。

     不如,我们重头来过。

奖项

     1997年第50届戛纳电影节最佳导演奖。


General
      Format : Matroska
      File size : 2.05 GiB
      Duration : 1h 37mn
      Overall bit rate : 3 022 Kbps
      Encoded date : UTC 2010-06-10 01:25:37
      Writing application : mkvmerge v3.0.0 ('Hang up your Hang-Ups') Dec 12 2009 15:20:35
      Writing library : libebml v0.7.9 + libmatroska v0.8.1
   Video #1
      ID : 1
      Format : AVC
      Format/Info : Advanced Video Codec
      Format profile : High@L4.1
      Format settings, CABAC : Yes
      Format settings, ReFrames : 4 frames
      Muxing mode : Container profile=Unknown@4.1
      Codec ID : V_MPEG4/ISO/AVC
      Duration : 1h 36mn
      Bit rate : 2 514 Kbps
      Nominal bit rate : 2 602 Kbps
      Width : 1 280 pixels
      Height : 690 pixels
      Display aspect ratio : 1.855
      Frame rate : 23.976 fps
      Resolution : 8 bits
      Colorimetry : 4:2:0
      Scan type : Progressive
      Bits/(Pixel*Frame) : 0.119
      Stream size : 1.70 GiB (83%)
      Writing library : x264 core 80 r1376M 3feaec2
      Encoding settings : cabac=1 / ref=5 / deblock=1:-3:-3 / analyse=0x3:0x113 / me=umh / subme=9 / psy=1 / psy_rd=1.0:0.0 / mixed_ref=1 / me_range=32 / chroma_me=1 / trellis=2 / 8x8dct=1 / cqm=0 / deadzone=21,11 / fast_pskip=1 / chroma_qp_offset=-2 / threads=6 / sliced_threads=0 / nr=0 / decimate=1 / mbaff=0 / constrained_intra=0 / bframes=3 / b_pyramid=1 / b_adapt=2 / b_bias=0 / direct=1 / wpredb=1 / wpredp=2 / keyint=250 / keyint_min=25 / scenecut=40 / rc_lookahead=40 / rc=2pass / mbtree=1 / bitrate=2602 / ratetol=1.0 / qcomp=0.60 / qpmin=10 / qpmax=51 / qpstep=4 / cplxblur=20.0 / qblur=0.5 / ip_ratio=1.40 / aq=1:1.00
      Language : English
   Audio #2
      ID : 2
      Format : AC-3
      Format/Info : Audio Coding 3
      Codec ID : A_AC3
      Duration : 1h 37mn
      Bit rate mode : Constant
      Bit rate : 448 Kbps
      Channel(s) : 6 channels
      Channel positions : Front: L C R, Surround: L R, LFE
      Sampling rate : 48.0 KHz
      Stream size : 311 MiB (15%)
      Title : 粤语
   Text #3
      ID : 3
      Format : UTF-8
      Codec ID : S_TEXT/UTF8
      Codec ID/Info : UTF-8 Plain Text
      Title : 中字




支持圣城家园,累积每一份鼓励 ♥ 马上开通VIP,专享VIP影视资源,优先观看!VIP影视库

VIP特权:专享资源、优先观看、无广告、免回复、免费下载、专属客服 ... 更多特权

游客,查看VIP资源下载,请开通VIP:VIP传送门


游客,如果您要查看本帖隐藏内容请回复,如果您想无广告、免回复、免费下载附件请开通VIP:VIP传送门

最新回复

该用户从未签到

发表于 2010-6-12 06:49:44 | 显示全部楼层
谢谢楼主,第一次沙发!!

该用户从未签到

发表于 2010-6-12 07:00:19 | 显示全部楼层
收藏一下,好片啊

该用户从未签到

发表于 2010-6-12 07:00:51 | 显示全部楼层
谢谢分享

该用户从未签到

发表于 2010-6-12 07:04:53 | 显示全部楼层
导演和演员都喜欢,就是不喜欢剧情,谢谢分享

该用户从未签到

发表于 2010-6-12 07:06:49 | 显示全部楼层
很经典

该用户从未签到

发表于 2010-6-12 07:09:42 | 显示全部楼层
好片真经典  谢谢楼主分享

签到天数: 580 天

发表于 2010-6-12 07:14:56 | 显示全部楼层
好片,收藏

该用户从未签到

发表于 2010-6-12 07:18:43 | 显示全部楼层
看过的
收藏一下

该用户从未签到

发表于 2010-6-12 07:21:00 | 显示全部楼层
下了看看,谢谢分享

该用户从未签到

发表于 2010-6-12 07:27:22 | 显示全部楼层
BL题材...

签到天数: 1 天

发表于 2010-6-12 07:36:52 | 显示全部楼层
感谢楼主!

签到天数: 2 天

发表于 2010-6-12 07:38:10 | 显示全部楼层
老片了,还没看过,下载看看!

该用户从未签到

 成长值: 14590

发表于 2010-6-12 07:43:56 | 显示全部楼层
终于有了,太感谢了

该用户从未签到

发表于 2010-6-12 07:44:59 | 显示全部楼层
哥哥的经典,收藏,感谢发片.

24小时最新

Top10精品合集

原创推荐

赞助广告

您需要登录后才可以回帖 登录 | 立即注册

使用帮助|捐助家园|开通VIP|知识产权|Archiver| 圣城家园电影下载

©Cnscg.com 圣城家园|不良信息举报: hdscgcom@gmail.com

快速回复 返回顶部 返回列表