查看: 23601|回复: 1220

[电影] [驱魔]Exorcism.of.Emily.Rose.2005.BluRay.720p.x264.AC3-CNSCG[中英字幕/2.4G]

  [复制链接]

该用户从未签到

发表于 2010-9-5 11:22:25 | 显示全部楼层
推荐下载工具
提示:如遇迅雷下载提示"任务出错"、"因版权无法下载",这是迅雷出的问题,请更换上面下载工具即可!
本帖最后由 高清电影补档 于 2017-4-17 18:41 编辑

p2167473204.jpg

【影片原名】The Exorcism Of Emily Rose
【外文别名】The Exorcism of Anneliese Michel .....(USA) (working title)
      Untitled Scott Derrickson Project .....(USA) (working title)
【中文译名】驱魔/艾米莉罗斯的驱魔记/恐怖灵讯
【出品公司】Screen Gems Inc.
【出品年代】2005 年
【上映日期】2005年9月1日 意大利
【影片级别】 USA:PG-13
【IMDB链接】 http://www.imdb.com/title/tt0404032
【IMDB评分】6.8/10 (22,650 votes)
【国  家】美国
【类  别】犯罪/剧情/恐怖
【导  演】Scott Derrickson
【主  演】劳拉·琳妮 Laura Linney .....Erin Bruner
      亨利·科泽尼 Henry Czerny .....Dr. Briggs
      汤姆·威尔金森 Tom Wilkinson .....Father Moore
      坎贝尔·斯科特 Campbell Scott .....Ethan Thomas
【内容简介】
剧情简介
  19岁的女孩艾米丽·罗丝(珍妮弗·卡彭特饰)与其他人一样,过着平淡无奇的大一生活,直到她生了一场大病之后,一切都变得与众不同了。她整天被奇异、恐怖的幻觉所困扰,甚至变得神志不清、疯疯癫癫。不但校医对她的病情束手无策,连资深的专家也是无从下手。于是,在少有的争议决议下,天主教堂收容了被认定为恶魔缠身的艾米丽,并由摩尔神父为她进行驱魔仪式。遗憾的是,正义没能战胜邪恶,虚弱的艾米丽经受不了强硬的驱魔仪式而送命,教堂与摩尔神父也因此被民间团体送上了法庭的被告席上。
  为摩尔神父辩护的是精明能乾的女律师艾琳·布鲁勒(劳拉·琳妮饰),她是一家律师事务所的合作人之一,也是一位典型的女强人。特别是在近期的一件高智商谋杀案中,艾琳凭着三寸不烂之舌将一个几乎被判定死罪的谋杀犯从铡刀下解救出来,并无罪释放。艾琳也因此跃升为律师界一颗耀眼的新星,备受关注。所以,当事务所的老板卡尔(柯姆·菲尔饰)将这件诉讼案交给艾琳时,她毫不犹豫地接了下来,因为这是她进一步扩大声誉、坐到事务所头把交椅的最佳良机……
主演简介
  劳拉·琳妮 Laura Linney
  劳拉·琳妮是受人尊敬的“非百老汇”剧作家罗米拉斯·琳妮的宝贝女儿,生于1964年2月5日,在纽约城出生。她从出生起就开始时常与剧院和媒体联系在一起,并由此自然而然地走上了银幕。在她还只有六个月的时候,父母便离了婚,由于父亲工作的关系,劳拉从小是在剧院里长大的。在麻萨诸塞的中学毕业以后,她进入布朗大学学习,很快就开始在百老汇的舞台上频频露面。金发碧眼、有着一付质朴面容的劳拉·琳妮是从扮演一个满脑子幻想女性开始自己表演生涯的。她在《海鸥》(The Seagull)和《六度分离》(Six Degrees of Separation)中所扮演的角色,使她引起了人们的关注,特别是在易卜生的传统剧目《Hedda Gabler》中的表演,更使其受到广泛赞誉……
影片简评
  本片是由真人真事改编的,同其它的以吓人镜头为噱头的恐怖电影不同,此片着重于关注情节的铺展和人物的细腻刻画,在驱魔的过程中不时闪回一些吓人的瞬间。除此以外,它还将紧张的法庭戏引入进来,上演了很多精彩的唇枪舌战场面,气氛控制的恰到好处、令人窒息,由此人性的本能争斗也被犀利地演示出来,为影片提升到了一个更高的层次。特别是本片所表达的内涵,由人性出发,人心的变质引发了一连串的恐怖事件,这给观众带来一种更加切身实际的感受,也使得影片变得更加惊悚恐惧。饰演女主角艾琳的劳拉·琳妮将角色诠释的十分到位,在法庭上铿锵有力,一点一点地将艾米丽死亡的真相揭示出来,也把观众的心吊在了半空中,直到最后仍惊魂未定。此片如果能受到业内人士和观众的肯定,相信将成为明年奥斯卡竞赛影片中的一匹黑马,为这个常常把恐怖片拒之门外的电影节添注一股 “惊悚”的气氛。



VIP下载地址
游客,贵宾VIP优先下载立即开通

VIP特权:VIP影视库、优先观看、无广告、免回复、免费下载、专属客服 ... 更多特权





下载地址
游客,如果您要查看本帖隐藏内容请回复,如果您想无广告、免回复、免费下载附件 请开通VIP




评分

参与人数 1影币 +100 收起 理由
kz911 + 100 谢谢你,圣城有你更精彩

查看全部评分

最新回复

该用户从未签到

 楼主| 发表于 2010-9-5 11:22:36 | 显示全部楼层
  1. [img]http://a.imagehost.org/0747/160dc021470e636bbf5d6987818f3375_500.png[/img]

  2. 【影片原名】The Exorcism Of Emily Rose
  3. 【外文别名】The Exorcism of Anneliese Michel .....(USA) (working title)
  4.       Untitled Scott Derrickson Project .....(USA) (working title)
  5. 【中文译名】驱魔/艾米莉罗斯的驱魔记/恐怖灵讯
  6. 【出品公司】Screen Gems Inc.
  7. 【出品年代】2005 年
  8. 【上映日期】2005年9月1日 意大利
  9. 【影片级别】 USA:PG-13
  10. 【IMDB链接】 http://www.imdb.com/title/tt0404032
  11. 【IMDB评分】6.8/10 (22,650 votes)
  12. 【国  家】美国
  13. 【类  别】犯罪/剧情/恐怖
  14. 【导  演】Scott Derrickson
  15. 【主  演】劳拉·琳妮 Laura Linney .....Erin Bruner
  16.       亨利·科泽尼 Henry Czerny .....Dr. Briggs
  17.       汤姆·威尔金森 Tom Wilkinson .....Father Moore
  18.       坎贝尔·斯科特 Campbell Scott .....Ethan Thomas
  19. 【内容简介】
  20. 剧情简介
  21.   19岁的女孩艾米丽·罗丝(珍妮弗·卡彭特饰)与其他人一样,过着平淡无奇的大一生活,直到她生了一场大病之后,一切都变得与众不同了。她整天被奇异、恐怖的幻觉所困扰,甚至变得神志不清、疯疯癫癫。不但校医对她的病情束手无策,连资深的专家也是无从下手。于是,在少有的争议决议下,天主教堂收容了被认定为恶魔缠身的艾米丽,并由摩尔神父为她进行驱魔仪式。遗憾的是,正义没能战胜邪恶,虚弱的艾米丽经受不了强硬的驱魔仪式而送命,教堂与摩尔神父也因此被民间团体送上了法庭的被告席上。
  22.   为摩尔神父辩护的是精明能乾的女律师艾琳·布鲁勒(劳拉·琳妮饰),她是一家律师事务所的合作人之一,也是一位典型的女强人。特别是在近期的一件高智商谋杀案中,艾琳凭着三寸不烂之舌将一个几乎被判定死罪的谋杀犯从铡刀下解救出来,并无罪释放。艾琳也因此跃升为律师界一颗耀眼的新星,备受关注。所以,当事务所的老板卡尔(柯姆·菲尔饰)将这件诉讼案交给艾琳时,她毫不犹豫地接了下来,因为这是她进一步扩大声誉、坐到事务所头把交椅的最佳良机……
  23. 主演简介
  24.   劳拉·琳妮 Laura Linney
  25.   劳拉·琳妮是受人尊敬的“非百老汇”剧作家罗米拉斯·琳妮的宝贝女儿,生于1964年2月5日,在纽约城出生。她从出生起就开始时常与剧院和媒体联系在一起,并由此自然而然地走上了银幕。在她还只有六个月的时候,父母便离了婚,由于父亲工作的关系,劳拉从小是在剧院里长大的。在麻萨诸塞的中学毕业以后,她进入布朗大学学习,很快就开始在百老汇的舞台上频频露面。金发碧眼、有着一付质朴面容的劳拉·琳妮是从扮演一个满脑子幻想女性开始自己表演生涯的。她在《海鸥》(The Seagull)和《六度分离》(Six Degrees of Separation)中所扮演的角色,使她引起了人们的关注,特别是在易卜生的传统剧目《Hedda Gabler》中的表演,更使其受到广泛赞誉……
  26. 影片简评
  27.   本片是由真人真事改编的,同其它的以吓人镜头为噱头的恐怖电影不同,此片着重于关注情节的铺展和人物的细腻刻画,在驱魔的过程中不时闪回一些吓人的瞬间。除此以外,它还将紧张的法庭戏引入进来,上演了很多精彩的唇枪舌战场面,气氛控制的恰到好处、令人窒息,由此人性的本能争斗也被犀利地演示出来,为影片提升到了一个更高的层次。特别是本片所表达的内涵,由人性出发,人心的变质引发了一连串的恐怖事件,这给观众带来一种更加切身实际的感受,也使得影片变得更加惊悚恐惧。饰演女主角艾琳的劳拉·琳妮将角色诠释的十分到位,在法庭上铿锵有力,一点一点地将艾米丽死亡的真相揭示出来,也把观众的心吊在了半空中,直到最后仍惊魂未定。此片如果能受到业内人士和观众的肯定,相信将成为明年奥斯卡竞赛影片中的一匹黑马,为这个常常把恐怖片拒之门外的电影节添注一股 “惊悚”的气氛。


  28. E:\压制MKV专用文件夹\驱魔£圣城打佛\bbs.cnscg.com 驱魔.mkv
  29.    General
  30.       Complete name : E:\压制MKV专用文件夹\驱魔£圣城打佛\bbs.cnscg.com 驱魔.mkv
  31.       Format : Matroska
  32.       File size : 2.40 GiB
  33.       Duration : 2h 1mn
  34.       Overall bit rate : 2 818 Kbps
  35.       Encoded date : UTC 2010-09-05 02:09:18
  36.       Writing application : mkvmerge v3.0.0 ('Hang up your Hang-Ups') 编译于 Dec 12 2009 15:20:35
  37.       Writing library : libebml v0.7.9 + libmatroska v0.8.1
  38.    Video #1
  39.       ID : 1
  40.       Format : AVC
  41.       Format/Info : Advanced Video Codec
  42.       Format profile : High@L4.1
  43.       Format settings, CABAC : Yes
  44.       Format settings, ReFrames : 4 frames
  45.       Muxing mode : Container profile=Unknown@4.1
  46.       Codec ID : V_MPEG4/ISO/AVC
  47.       Duration : 2h 1mn
  48.       Bit rate : 2 314 Kbps
  49.       Nominal bit rate : 2 370 Kbps
  50.       Width : 1 280 pixels
  51.       Height : 720 pixels
  52.       Display aspect ratio : 16:9
  53.       Frame rate : 23.976 fps
  54.       Resolution : 8 bits
  55.       Colorimetry : 4:2:0
  56.       Scan type : Progressive
  57.       Bits/(Pixel*Frame) : 0.105
  58.       Stream size : 1.97 GiB (82%)
  59.       Writing library : x264 core 98 r1649 20cbe10
  60.       Encoding settings : cabac=1 / ref=5 / deblock=1:-3:-2 / analyse=0x3:0x113 / me=umh / subme=8 / psy=1 / psy_rd=1.00:0.10 / mixed_ref=1 / me_range=32 / chroma_me=1 / trellis=2 / 8x8dct=1 / cqm=0 / deadzone=21,11 / fast_pskip=0 / chroma_qp_offset=-2 / threads=6 / sliced_threads=0 / nr=0 / decimate=0 / interlaced=0 / constrained_intra=0 / bframes=3 / b_pyramid=1 / b_adapt=2 / b_bias=0 / direct=1 / weightb=1 / weightp=2 / keyint=250 / keyint_min=25 / scenecut=40 / intra_refresh=0 / rc_lookahead=40 / rc=2pass / mbtree=1 / bitrate=2370 / ratetol=1.0 / qcomp=0.60 / qpmin=10 / qpmax=51 / qpstep=4 / cplxblur=20.0 / qblur=0.5 / ip_ratio=1.40 / aq=1:1.00
  61.       Language : English
  62.    Audio #2
  63.       ID : 2
  64.       Format : AC-3
  65.       Format/Info : Audio Coding 3
  66.       Codec ID : A_AC3
  67.       Duration : 2h 1mn
  68.       Bit rate mode : Constant
  69.       Bit rate : 448 Kbps
  70.       Channel(s) : 6 channels
  71.       Channel positions : Front: L C R, Surround: L R, LFE
  72.       Sampling rate : 48.0 KHz
  73.       Stream size : 390 MiB (16%)
  74.    Text #3
  75.       ID : 3
  76.       Format : SSA
  77.       Codec ID : S_TEXT/SSA
  78.       Codec ID/Info : Sub Station Alpha
  79.       Title : 上中下英
  80.    Text #4
  81.       ID : 4
  82.       Format : SSA
  83.       Codec ID : S_TEXT/SSA
  84.       Codec ID/Info : Sub Station Alpha
  85.       Title : 上英下中
  86.    Text #5
  87.       ID : 5
  88.       Format : UTF-8
  89.       Codec ID : S_TEXT/UTF8
  90.       Codec ID/Info : UTF-8 Plain Text
  91.       Title : 中文
  92.    Text #6
  93.       ID : 6
  94.       Format : UTF-8
  95.       Codec ID : S_TEXT/UTF8
  96.       Codec ID/Info : UTF-8 Plain Text
  97.       Title : 英文

  98. [img]http://img.album.pchome.net/54/77/18/31/a5738f2a4d86d1e233cd927d76f2a6db.JPG[/img]

  99. [img]http://img.album.pchome.net/54/77/18/31/1cd29a7ec69b00c9eda66f4a623190fe.JPG[/img]
复制代码

该用户从未签到

发表于 2010-9-5 11:30:40 | 显示全部楼层
下来看看情节如何

签到天数: 1 天

发表于 2010-9-5 11:32:03 | 显示全部楼层
看看情节如何

签到天数: 69 天

发表于 2010-9-5 11:35:51 | 显示全部楼层
这个片子的精彩之处就是···没有直接告诉你,基督到底存在不存在···有些事情虽然有解释,但也不过猜测而已!~~~很棒的片子

该用户从未签到

发表于 2010-9-5 11:36:31 | 显示全部楼层
看介绍情节不错,看看

签到天数: 8 天

发表于 2010-9-5 11:38:05 | 显示全部楼层
谢了
下来看看怎么样

该用户从未签到

发表于 2010-9-5 11:39:58 | 显示全部楼层
老片子了,老是有人推,就下来看看吧.

签到天数: 61 天

发表于 2010-9-5 11:41:03 | 显示全部楼层
提示: 作者被禁止或删除 内容自动屏蔽

该用户从未签到

发表于 2010-9-5 11:41:53 | 显示全部楼层
很有名的片子,一直没看过,谢谢楼主了

签到天数: 1 天

发表于 2010-9-5 11:41:58 | 显示全部楼层
片的内容我很感兴趣呢

签到天数: 1 天

发表于 2010-9-5 11:42:48 | 显示全部楼层
看介绍很吸引人哪、了解一下、谢了

签到天数: 18 天

发表于 2010-9-5 11:48:18 | 显示全部楼层
经典的惊悚电影啊,以前我看的DVD看到一半就,读不过去了,现在直接下高清的了,哈哈。

签到天数: 2 天

发表于 2010-9-5 11:54:20 | 显示全部楼层
不错的电影``支持一下``

签到天数: 677 天

发表于 2010-9-5 11:56:26 | 显示全部楼层
很有真实感的纪录片式恐怖片,谢谢楼主分享

您可能喜欢

24小时最新

圣城家园精选

电影合集

下一页 »
返回列表 发新帖
快捷回复 换一组
您需要登录后才可以回帖 登录 | 立即注册

快速回复 返回顶部 返回列表