查看: 71470|回复: 9964

[电影] [生化危机4]Resident.Evil.2010.BluRay.720p.x264.AC3-CnSCG[中英字幕/2.2G]

  [复制链接]

该用户从未签到

发表于 2010-11-24 07:15:34 | 显示全部楼层
推荐下载工具
提示:如遇迅雷下载提示"任务出错"、"因版权无法下载",这是迅雷出的问题,请更换上面下载工具即可!
本帖最后由 高清电影补档 于 2017-3-29 14:41 编辑

p2212512862.jpg


【影片原名】Resident Evil: Afterlife
【中文译名】生化危机4:来生/生化危机4/生化危机3D:战神再生(港)/恶灵古堡IV:阴阳界(台)
【出品公司】Constantin Film Produktion
【出品年代】2010 年
【上映日期】2010年9月10日 美国
【影片级别】USA:R (certificate #45859) | Malaysia:18 | Japan:PG12 | Finland:K-15 | India:U/A
【官方网站】http://www.residentevil-movie.com/
【IMDB链接】http://www.imdb.com/title/tt1220634/
【IMDB评分】6.5/10 (14,579 votes)
【国  家】英国/德国/美国
【类  别】动作/恐怖/科幻/惊悚
【导  演】保罗·安德森 Paul W.S. Anderson
【主  演】米拉·乔沃维奇 Milla Jovovich ... Alice
      艾丽·拉特 Ali Larter ... Claire Redfield
      文特沃斯·米勒 Wentworth Miller ... Chris Redfield
      金·寇兹 Kim Coates ... Bennett
      肖恩·罗伯茨 Shawn Roberts ... Albert Wesker
      塞尔乔·佩里斯-曼切塔 Sergio Peris-Mencheta ... Angel
      史宾塞·洛克 Spencer Locke ... K-Mart
      波瑞斯·科乔 Boris Kodjoe ... Luther
      西耶娜·盖尔利 Sienna Guillory ... Jill Valentine
      Kacey Barnfield ... Crystal
      Norman Yeung ... Kim Yong
      Fulvio Cecere ... Wendell
      Ray Olubowale ... Axeman
      Christopher Kano ... Sniper #1
      Tatsuya Goke ... Sniper #2
  在被病毒感染后的世界,爱丽丝仍然在寻找幸存者并带领他们前往安全之地。她与“雨伞”公司之间的战斗达到了一个新的高度,同时她也得到了一个老朋友的帮助。一个新的领队表示洛杉矶是未感染病毒者的天堂,但当他们到达时,却发现那里已经被僵尸占据,爱丽丝和她的伙伴们必须冲出重围。(时光网版权文字,严禁抓取。)
一句话评论
  事实证明,丧尸题材依然可以挖掘到新意。——《纽约邮报》
  一次令人预想不到的新奇冒险。——《芝加哥论坛报》
  更加恐怖、更加震撼,更加壮观!——《旧金山纪事报》
幕后制作
  丧尸遍布的末日世界
  2002年,改编自销量过千万的电子游戏作品《生化危机》的同名电影公映,这部将小打小闹的丧尸题材上升到科幻高度的电影,虽然依旧换汤不换药的走着 B级片的风格,不过在游戏迷和影迷的双重支持下,三部《生化危机》在全球也取得了3亿美元的票房成绩,顺带也让三部曲的主创保罗·安德森确立了自己的品牌地位。如今,这部作品的最新作即将面世,重新执导本片的保罗·安德森对《生化危机4:来生》的创作起源说道:“这部电影是生化危机系列一个新的开始,它在风格上会和前面三部生化危机电影有着不一样的感觉。在过去的《生化危机》电影里,我们看到的是一个城市乃至一个地区的毁灭,主角总是在不停的奔逃,为的是活命,这是因为整部电影的氛围是一种岌岌可危的状态,生存是影片的主题。但是经过了三部电影阐述这个主题之后,我们觉得在这个点上已经说得足够清楚了,所以生化危机系列必须迎来新的发展。”
  距离2007年的《生化危机3:灭绝》已经过去了三年,如今在故事方面又有着什么样的新看点呢?同时身为本片编剧的保罗·安德森说道:“前三集的主题是生存,对于这部《生化危机4:来生》,在故事上不再以生存为主题,反而重点是追寻真相。在这一集里,病毒已经扩散到全世界,主角们要找到制药公司,揭开阴谋。所以,故事的悬念不再是看主角们如何面对那些灭顶之灾,而是带着好奇去看,究竟为什么会变成这样?还有没有拯救的可能性?这也是新三部曲的主题。”
  僵尸题材是电影中一个相当有趣的类别,自从乔治·A·罗梅罗在《活死人黎明》一片里把吸血鬼和病毒相结合,创造出这么一个行尸走肉的“丧尸”形象之后,数十年来在大银幕上出现的丧尸形象都基本停留在病毒感染、嗜血、高传染性等几个特征上。在谈及《生化危机4:来生》里出现的“丧尸”之时,保罗·安德森说道:“电影版的丧尸设定是遵循游戏本身的设定而来,丧尸的出现是因为病毒武器的泄露而产生。丧尸是这部电影的绝对主角,我们至少在片中安排了超过 300名丧尸的出现……这些扮演丧尸的演员其实是很辛苦的,因为那层泥浆并不好受。由于严格的按照游戏的设定而来,所以电影中的丧尸并不会像近期的那些丧尸电影那样,奔跑很迅速,甚至还会有思维,影片里,丧尸是主角们最容易解决的怪物,但由于数量众多,实际上带给主角们的麻烦也不小。对于营造电影的末日氛围,丧尸们功不可没。”
  立足游戏独辟蹊径
  每部新的《生化危机》电影都会有一个新角色出现,《生化危机2:启示录》里是西耶娜·盖尔利扮演的吉尔警官,《生化危机3:灭绝》是艾丽·拉特扮演的克莱尔,而到了《生化危机4:来生》,则是文特沃斯·米勒扮演的克里斯。这些角色都是游戏里人气极高的角色,特别是克里斯,正好是游戏最新一部的男主角, 谈及这个角色在《生化危机4:来生》的出现,保罗·安德森说道:“克里斯这个角色是我们一开始筹拍本片的时候就一定决定要加入的,因为他在游戏里非常受欢迎,而且在第三集里,他的妹妹已经出现在电影里,所以这次有克里斯的出现也显得顺理成章。对于一直以来靠米拉·乔沃维奇、西耶娜·盖尔利、艾丽·拉特等女演员来撑起这部丧尸题材的电影,我们也希望能有一个强有力的男主角出现,让本片显得更有力量。”
  在《越狱》的大热之后,原来名气并不大的文特沃斯·米勒俨然已经成为了好莱坞一颗活力四射的新星,对于这次在《越狱》终结之后用《生化危机4:来生》来作为新旅途的开始,文特沃斯·米勒对电影里自己的角色分析道:“我非常想饰演一个身手敏捷,有着大量动作戏的角色,而《生化危机4:来生》里的克里斯能够很好的满足我这个愿望,他在电影里是一个英雄,他会和系列的主角米拉一起,对抗许多敌人,这部电影在动作场面的设计上让我觉得非常过瘾,因为克里斯这个角色会衬托出米拉本身的超强功夫,米拉的动作设计要天马行空一些,而克里斯则是肉搏和枪战为主,这也是我非常喜欢的动作场面。克里斯这个角色,将会在游戏对他的描述之上,展现更多他在生活和面临危机时的那种无畏、勇敢的态度,我相信游戏的粉丝会非常认同电影里的克里斯。”
  《生化危机4:来生》在技术上采用了3D制作,迎合了在《阿凡达》之后目前电影界风靡的3D潮流,但由于之前一些电影的3D效果并不出众,因此《生化危机4:来生》的3D究竟实际效果如何也是观众关心的一个话题,对于这一点,保罗·安德森说道:“《生化危机4:来生》的3D是特别制作的,并且我们在拍摄的时候就采用了目前全球最好的3D拍摄设备来进行摄制,而且《生化危机4:来生》的特效镜头是系列里最多的,在制作这些特效镜头的时候,我们都考虑到了 3D的元素,因此《生化危机4:来生》的3D版本是非常有诚意的。”
花絮
  ·《生化危机》第四集的副标题是“Afterlife”(来生),而这是对应第三集的副标题"Extinction"(灭绝)。
  ·《生化危机4:来生》是首部采用3D规格制作的电子游戏改编的电影。
  ·《生化危机4:来生》的部分情节借鉴了2000年的《生化危机:代号维罗妮卡》以及2009年的《生化危机5》两部电子游戏。
  ·《生化危机4:来生》是首部采用IMAX、3D、2D规格同时公映的恐怖片。
  ·《生化危机4:来生》是保罗·安德森第二次亲自执导《生化危机》系列,上一次是2002年的首部曲。
精彩对白
  Alice: [narrating] The Umbrella Corporation feel safe, they feel secure. They're wrong.
  爱丽丝:“(叙述着)雨伞公司让人感觉到安全,让大家有安全感。他们错了。”
D:\bbs.cnscg.com 生化危机4 来生.mkv
   Video #1
      ID : 1
      Format : AVC
      Format/Info : Advanced Video Codec
      Format profile : High@L4.1
      Format settings, CABAC : Yes
      Format settings, ReFrames : 4 frames
      Muxing mode : Container profile=Unknown@4.1
      Codec ID : V_MPEG4/ISO/AVC
      Duration : 1h 36mn
      Nominal bit rate : 2 607 Kbps
      Width : 1 280 pixels
      Height : 720 pixels
      Display aspect ratio : 16:9
      Frame rate : 23.976 fps
      Resolution : 8 bits
      Colorimetry : 4:2:0
      Scan type : Progressive
      Bits/(Pixel*Frame) : 0.118
      Writing library : x264 core 98 r1649 20cbe10
      Encoding settings : cabac=1 / ref=5 / deblock=1:-3:-3 / analyse=0x3:0x113 / me=umh / subme=9 / psy=1 / psy_rd=1.00:0.10 / mixed_ref=1 / me_range=32 / chroma_me=1 / trellis=2 / 8x8dct=1 / cqm=0 / deadzone=21,11 / fast_pskip=0 / chroma_qp_offset=-2 / threads=6 / sliced_threads=0 / nr=0 / decimate=0 / interlaced=0 / constrained_intra=0 / bframes=3 / b_pyramid=1 / b_adapt=2 / b_bias=0 / direct=1 / weightb=1 / weightp=2 / keyint=250 / keyint_min=25 / scenecut=40 / intra_refresh=0 / rc_lookahead=40 / rc=2pass / mbtree=1 / bitrate=2607 / ratetol=1.0 / qcomp=0.60 / qpmin=10 / qpmax=51 / qpstep=4 / cplxblur=20.0 / qblur=0.5 / ip_ratio=1.40 / aq=1:1.00
      Language : English
   Audio #2
      ID : 2
      Format : AC-3
      Format/Info : Audio Coding 3
      Codec ID : A_AC3
      Duration : 1h 36mn
      Bit rate mode : Constant
      Bit rate : 640 Kbps
      Channel(s) : 6 channels
      Channel positions : Front: L C R, Surround: L R, LFE
      Sampling rate : 48.0 KHz
      Stream size : 443 MiB
   Text #3
      ID : 3
      Format : SSA
      Codec ID : S_TEXT/SSA
      Codec ID/Info : Sub Station Alpha
      Title : 上中下英
   Text #4
      ID : 4
      Format : SSA
      Codec ID : S_TEXT/SSA
      Codec ID/Info : Sub Station Alpha
      Title : 上英下中
   Text #5
      ID : 5
      Format : UTF-8
      Codec ID : S_TEXT/UTF8
      Codec ID/Info : UTF-8 Plain Text
      Title : 中文
   Text #6
      ID : 6
      Format : UTF-8
      Codec ID : S_TEXT/UTF8
      Codec ID/Info : UTF-8 Plain Text
      Title : 英文




下载地址
游客,如果您要查看本帖隐藏内容请回复,如果您想无广告、免回复、免费下载附件 请开通VIP


最新回复

该用户从未签到

 楼主| 发表于 2010-11-24 07:17:08 | 显示全部楼层
  1. [img=1697,2199]http://images.blu-ray.com/movies/covers/17514_front.jpg[/img]

  2. 【影片原名】Resident Evil: Afterlife
  3. 【中文译名】生化危机4:来生/生化危机4/生化危机3D:战神再生(港)/恶灵古堡IV:阴阳界(台)
  4. 【出品公司】Constantin Film Produktion
  5. 【出品年代】2010 年
  6. 【上映日期】2010年9月10日 美国
  7. 【影片级别】USA:R (certificate #45859) | Malaysia:18 | Japan:PG12 | Finland:K-15 | India:U/A
  8. 【官方网站】http://www.residentevil-movie.com/
  9. 【IMDB链接】http://www.imdb.com/title/tt1220634/
  10. 【IMDB评分】6.5/10 (14,579 votes)
  11. 【国  家】英国/德国/美国
  12. 【类  别】动作/恐怖/科幻/惊悚
  13. 【导  演】保罗·安德森 Paul W.S. Anderson
  14. 【主  演】米拉·乔沃维奇 Milla Jovovich ... Alice
  15.       艾丽·拉特 Ali Larter ... Claire Redfield
  16.       文特沃斯·米勒 Wentworth Miller ... Chris Redfield
  17.       金·寇兹 Kim Coates ... Bennett
  18.       肖恩·罗伯茨 Shawn Roberts ... Albert Wesker
  19.       塞尔乔·佩里斯-曼切塔 Sergio Peris-Mencheta ... Angel
  20.       史宾塞·洛克 Spencer Locke ... K-Mart
  21.       波瑞斯·科乔 Boris Kodjoe ... Luther
  22.       西耶娜·盖尔利 Sienna Guillory ... Jill Valentine
  23.       Kacey Barnfield ... Crystal
  24.       Norman Yeung ... Kim Yong
  25.       Fulvio Cecere ... Wendell
  26.       Ray Olubowale ... Axeman
  27.       Christopher Kano ... Sniper #1
  28.       Tatsuya Goke ... Sniper #2

  29.   在被病毒感染后的世界,爱丽丝仍然在寻找幸存者并带领他们前往安全之地。她与“雨伞”公司之间的战斗达到了一个新的高度,同时她也得到了一个老朋友的帮助。一个新的领队表示洛杉矶是未感染病毒者的天堂,但当他们到达时,却发现那里已经被僵尸占据,爱丽丝和她的伙伴们必须冲出重围。(时光网版权文字,严禁抓取。)

  30. 一句话评论

  31.   事实证明,丧尸题材依然可以挖掘到新意。——《纽约邮报》

  32.   一次令人预想不到的新奇冒险。——《芝加哥论坛报》

  33.   更加恐怖、更加震撼,更加壮观!——《旧金山纪事报》

  34. 幕后制作

  35.   丧尸遍布的末日世界

  36.   2002年,改编自销量过千万的电子游戏作品《生化危机》的同名电影公映,这部将小打小闹的丧尸题材上升到科幻高度的电影,虽然依旧换汤不换药的走着 B级片的风格,不过在游戏迷和影迷的双重支持下,三部《生化危机》在全球也取得了3亿美元的票房成绩,顺带也让三部曲的主创保罗·安德森确立了自己的品牌地位。如今,这部作品的最新作即将面世,重新执导本片的保罗·安德森对《生化危机4:来生》的创作起源说道:“这部电影是生化危机系列一个新的开始,它在风格上会和前面三部生化危机电影有着不一样的感觉。在过去的《生化危机》电影里,我们看到的是一个城市乃至一个地区的毁灭,主角总是在不停的奔逃,为的是活命,这是因为整部电影的氛围是一种岌岌可危的状态,生存是影片的主题。但是经过了三部电影阐述这个主题之后,我们觉得在这个点上已经说得足够清楚了,所以生化危机系列必须迎来新的发展。”

  37.   距离2007年的《生化危机3:灭绝》已经过去了三年,如今在故事方面又有着什么样的新看点呢?同时身为本片编剧的保罗·安德森说道:“前三集的主题是生存,对于这部《生化危机4:来生》,在故事上不再以生存为主题,反而重点是追寻真相。在这一集里,病毒已经扩散到全世界,主角们要找到制药公司,揭开阴谋。所以,故事的悬念不再是看主角们如何面对那些灭顶之灾,而是带着好奇去看,究竟为什么会变成这样?还有没有拯救的可能性?这也是新三部曲的主题。”

  38.   僵尸题材是电影中一个相当有趣的类别,自从乔治·A·罗梅罗在《活死人黎明》一片里把吸血鬼和病毒相结合,创造出这么一个行尸走肉的“丧尸”形象之后,数十年来在大银幕上出现的丧尸形象都基本停留在病毒感染、嗜血、高传染性等几个特征上。在谈及《生化危机4:来生》里出现的“丧尸”之时,保罗·安德森说道:“电影版的丧尸设定是遵循游戏本身的设定而来,丧尸的出现是因为病毒武器的泄露而产生。丧尸是这部电影的绝对主角,我们至少在片中安排了超过 300名丧尸的出现……这些扮演丧尸的演员其实是很辛苦的,因为那层泥浆并不好受。由于严格的按照游戏的设定而来,所以电影中的丧尸并不会像近期的那些丧尸电影那样,奔跑很迅速,甚至还会有思维,影片里,丧尸是主角们最容易解决的怪物,但由于数量众多,实际上带给主角们的麻烦也不小。对于营造电影的末日氛围,丧尸们功不可没。”

  39.   立足游戏独辟蹊径

  40.   每部新的《生化危机》电影都会有一个新角色出现,《生化危机2:启示录》里是西耶娜·盖尔利扮演的吉尔警官,《生化危机3:灭绝》是艾丽·拉特扮演的克莱尔,而到了《生化危机4:来生》,则是文特沃斯·米勒扮演的克里斯。这些角色都是游戏里人气极高的角色,特别是克里斯,正好是游戏最新一部的男主角, 谈及这个角色在《生化危机4:来生》的出现,保罗·安德森说道:“克里斯这个角色是我们一开始筹拍本片的时候就一定决定要加入的,因为他在游戏里非常受欢迎,而且在第三集里,他的妹妹已经出现在电影里,所以这次有克里斯的出现也显得顺理成章。对于一直以来靠米拉·乔沃维奇、西耶娜·盖尔利、艾丽·拉特等女演员来撑起这部丧尸题材的电影,我们也希望能有一个强有力的男主角出现,让本片显得更有力量。”

  41.   在《越狱》的大热之后,原来名气并不大的文特沃斯·米勒俨然已经成为了好莱坞一颗活力四射的新星,对于这次在《越狱》终结之后用《生化危机4:来生》来作为新旅途的开始,文特沃斯·米勒对电影里自己的角色分析道:“我非常想饰演一个身手敏捷,有着大量动作戏的角色,而《生化危机4:来生》里的克里斯能够很好的满足我这个愿望,他在电影里是一个英雄,他会和系列的主角米拉一起,对抗许多敌人,这部电影在动作场面的设计上让我觉得非常过瘾,因为克里斯这个角色会衬托出米拉本身的超强功夫,米拉的动作设计要天马行空一些,而克里斯则是肉搏和枪战为主,这也是我非常喜欢的动作场面。克里斯这个角色,将会在游戏对他的描述之上,展现更多他在生活和面临危机时的那种无畏、勇敢的态度,我相信游戏的粉丝会非常认同电影里的克里斯。”

  42.   《生化危机4:来生》在技术上采用了3D制作,迎合了在《阿凡达》之后目前电影界风靡的3D潮流,但由于之前一些电影的3D效果并不出众,因此《生化危机4:来生》的3D究竟实际效果如何也是观众关心的一个话题,对于这一点,保罗·安德森说道:“《生化危机4:来生》的3D是特别制作的,并且我们在拍摄的时候就采用了目前全球最好的3D拍摄设备来进行摄制,而且《生化危机4:来生》的特效镜头是系列里最多的,在制作这些特效镜头的时候,我们都考虑到了 3D的元素,因此《生化危机4:来生》的3D版本是非常有诚意的。”

  43. 花絮

  44.   ·《生化危机》第四集的副标题是“Afterlife”(来生),而这是对应第三集的副标题"Extinction"(灭绝)。

  45.   ·《生化危机4:来生》是首部采用3D规格制作的电子游戏改编的电影。

  46.   ·《生化危机4:来生》的部分情节借鉴了2000年的《生化危机:代号维罗妮卡》以及2009年的《生化危机5》两部电子游戏。

  47.   ·《生化危机4:来生》是首部采用IMAX、3D、2D规格同时公映的恐怖片。

  48.   ·《生化危机4:来生》是保罗·安德森第二次亲自执导《生化危机》系列,上一次是2002年的首部曲。

  49. 精彩对白

  50.   Alice: [narrating] The Umbrella Corporation feel safe, they feel secure. They're wrong.
  51.   爱丽丝:“(叙述着)雨伞公司让人感觉到安全,让大家有安全感。他们错了。”

  52. D:\bbs.cnscg.com 生化危机4 来生.mkv
  53.    Video #1
  54.       ID : 1
  55.       Format : AVC
  56.       Format/Info : Advanced Video Codec
  57.       Format profile : High@L4.1
  58.       Format settings, CABAC : Yes
  59.       Format settings, ReFrames : 4 frames
  60.       Muxing mode : Container profile=Unknown@4.1
  61.       Codec ID : V_MPEG4/ISO/AVC
  62.       Duration : 1h 36mn
  63.       Nominal bit rate : 2 607 Kbps
  64.       Width : 1 280 pixels
  65.       Height : 720 pixels
  66.       Display aspect ratio : 16:9
  67.       Frame rate : 23.976 fps
  68.       Resolution : 8 bits
  69.       Colorimetry : 4:2:0
  70.       Scan type : Progressive
  71.       Bits/(Pixel*Frame) : 0.118
  72.       Writing library : x264 core 98 r1649 20cbe10
  73.       Encoding settings : cabac=1 / ref=5 / deblock=1:-3:-3 / analyse=0x3:0x113 / me=umh / subme=9 / psy=1 / psy_rd=1.00:0.10 / mixed_ref=1 / me_range=32 / chroma_me=1 / trellis=2 / 8x8dct=1 / cqm=0 / deadzone=21,11 / fast_pskip=0 / chroma_qp_offset=-2 / threads=6 / sliced_threads=0 / nr=0 / decimate=0 / interlaced=0 / constrained_intra=0 / bframes=3 / b_pyramid=1 / b_adapt=2 / b_bias=0 / direct=1 / weightb=1 / weightp=2 / keyint=250 / keyint_min=25 / scenecut=40 / intra_refresh=0 / rc_lookahead=40 / rc=2pass / mbtree=1 / bitrate=2607 / ratetol=1.0 / qcomp=0.60 / qpmin=10 / qpmax=51 / qpstep=4 / cplxblur=20.0 / qblur=0.5 / ip_ratio=1.40 / aq=1:1.00
  74.       Language : English
  75.    Audio #2
  76.       ID : 2
  77.       Format : AC-3
  78.       Format/Info : Audio Coding 3
  79.       Codec ID : A_AC3
  80.       Duration : 1h 36mn
  81.       Bit rate mode : Constant
  82.       Bit rate : 640 Kbps
  83.       Channel(s) : 6 channels
  84.       Channel positions : Front: L C R, Surround: L R, LFE
  85.       Sampling rate : 48.0 KHz
  86.       Stream size : 443 MiB
  87.    Text #3
  88.       ID : 3
  89.       Format : SSA
  90.       Codec ID : S_TEXT/SSA
  91.       Codec ID/Info : Sub Station Alpha
  92.       Title : 上中下英
  93.    Text #4
  94.       ID : 4
  95.       Format : SSA
  96.       Codec ID : S_TEXT/SSA
  97.       Codec ID/Info : Sub Station Alpha
  98.       Title : 上英下中
  99.    Text #5
  100.       ID : 5
  101.       Format : UTF-8
  102.       Codec ID : S_TEXT/UTF8
  103.       Codec ID/Info : UTF-8 Plain Text
  104.       Title : 中文
  105.    Text #6
  106.       ID : 6
  107.       Format : UTF-8
  108.       Codec ID : S_TEXT/UTF8
  109.       Codec ID/Info : UTF-8 Plain Text
  110.       Title : 英文

  111. [img=1280,720]http://img.album.pchome.net/54/74/81/83/70567ff6cf63a738c5daa28b2e807ce6.JPG[/img]

  112. [img=1280,720]http://img.album.pchome.net/54/74/81/83/31098758feec6f00e97f005d5d3d5024.JPG[/img]

复制代码

该用户从未签到

发表于 2010-11-24 07:17:45 | 显示全部楼层
沙发,哈哈哈哈

该用户从未签到

发表于 2010-11-24 07:17:55 | 显示全部楼层
沙发,哈哈哈哈

签到天数: 7 天

发表于 2010-11-24 07:21:30 | 显示全部楼层
thanks for sharing

该用户从未签到

发表于 2010-11-24 07:21:50 | 显示全部楼层
超经典系列电影

该用户从未签到

发表于 2010-11-24 07:25:31 | 显示全部楼层
终于等到了 呵呵

该用户从未签到

 成长值: 19420

发表于 2010-11-24 07:25:42 | 显示全部楼层
感谢楼主分享,辛苦了

该用户从未签到

发表于 2010-11-24 07:27:13 | 显示全部楼层
感谢楼主分享

签到天数: 1 天

发表于 2010-11-24 07:27:30 | 显示全部楼层

好片啊  等很久了 --------

该用户从未签到

发表于 2010-11-24 07:27:59 | 显示全部楼层

终于等到了!谢谢!

签到天数: 13 天

发表于 2010-11-24 07:30:19 | 显示全部楼层
前三部都不错~第三部尤其好看!不知道这部怎么样!谢谢分享

签到天数: 121 天

发表于 2010-11-24 07:30:24 | 显示全部楼层
下来瞅瞅……

签到天数: 9 天

发表于 2010-11-24 07:31:49 | 显示全部楼层
太经典了,系列影片,哈哈

该用户从未签到

发表于 2010-11-24 07:34:14 | 显示全部楼层
太好了,感谢楼主

您可能喜欢

24小时最新

圣城家园精选

电影合集

下一页 »
返回列表 发新帖
快捷回复 换一组
您需要登录后才可以回帖 登录 | 立即注册

快速回复 返回顶部 返回列表