查看: 27521|回复: 2394

[电影] [美丽心灵]A.Beautiful.Mind.2001.BluRay.720p.x264.AC3-CnSCG[中英字幕/3G]

  [复制链接]

该用户从未签到

发表于 2011-1-29 22:16:00 | 显示全部楼层
推荐下载工具
提示:如遇迅雷下载提示"任务出错"、"因版权无法下载",这是迅雷出的问题,请更换上面下载工具即可!
本帖最后由 高清电影补档 于 2017-3-29 17:30 编辑
奥斯卡最佳影片,原盘压制,片子不怎么费码率

美丽心灵.jpg

◎英 文 名 A Beautiful Mind
◎中 文 名 美丽心灵/美丽境界(台)/有你终生美丽(港)
◎年  代 2002年1月4日
◎国  家 美国
◎语  言 英语
◎IMDb评分 8.0/10
◎IMDb链接 http://www.imdb.com/title/tt0268978/
◎片  长 135 mins
◎类  别 传记 / 剧情
◎导  演 罗恩·霍华德 Ron Howard
◎主  演 拉塞尔·克罗 Russell Crowe
      艾德·哈里斯 Ed Harris
      詹妮弗·康纳利 Jennifer Connelly
      克里斯托弗·普卢默 Christopher Plummer
      保罗·贝塔尼 Paul Bettany
      亚当·戈德堡 Adam Goldberg

◎简  介 
  数学天才约翰尼殊在美国普林斯顿大学求学时就成为老师眼中的问题学生,同窗口中的孤僻少年。约翰愈是受到他人的歧视,愈是激发他找出惊世理论的决心。终于,约翰提出的“平衡理论”推翻了当代经济学之父亚当史密夫150年来的学说,赢得了数学界的另眼相看,也改变了他的一生。

  时值冷战时期,约翰虽然获邀在麻省理工执教鞭。这时,一名情报局人员向约翰招手,要罗致他成为国家解码专家。约翰如愿以偿在政府工作,同时也认识了美丽良善的艾丽诗。二人一拍即合,相识没多久随即闪电结婚。由于工作关系,约翰知道不少政府机密,开始堕进精神分裂状态,不时妄想自己被亲近的人陷害,最后更被送进精神病院接受治疗。在妻子艾丽诗的鼓励下,约翰重新振作,重返普林斯顿大学教书。约翰承认自己精神异常的同时,努力钻研“平衡理论”,终于在 1994年获得诺贝尔经济科学奖。

  本片是前诺贝尔奖得主、著名数学家约翰福布斯(John Forbes Nash Jr.)的传记故事,约翰福布斯不仅是一位数学奇才,私生活也非常耐人寻味:他是一位双性恋者,曾因在男性休息室曝露下体被拘禁,婚姻之外又有了私生子,更绝的是人到中年时竟患上精神分裂症,天才与白痴一线之差,他曾于50年代研究出经济学的“博弈理论”(Game Theory),40年后才获得了诺贝尔经济学奖。

  影片讲述约翰福布斯年纪轻轻就已显露数学天分,一举成名。可是又偏偏患上精神分裂症,在漫长的日子中从痛苦经历寻回自我。经过多年的奋斗,和太太的鼓励,终于抹去生命中的悲剧色彩,更成为诺贝尔奖得主。镜头对准了他和妻子之间的关系以及精神病态恢复正常的过程,为我们展示了约翰福布斯多姿多彩的人生。

  本片荣获8项奥斯卡提名,最终夺得第74届奥斯卡最佳影片、最佳导演、最佳改编剧本和最佳女配角4项大奖。



D:\美丽心灵.mkv
   General
      Complete name : D:\美丽心灵.mkv
      Format : Matroska
      File size : 3.00 GiB
      Duration : 2h 15mn
      Overall bit rate : 3 170 Kbps
      Encoded date : UTC 2011-01-29 02:24:48
      Writing application : mkvmerge v2.9.8 ('C'est le bon') built on Aug 13 2009 12:49:06
      Writing library : libebml v0.7.7 + libmatroska v0.8.1
   Video #1
      ID : 1
      Format : AVC
      Format/Info : Advanced Video Codec
      Format profile : High@L4.1
      Format settings, CABAC : Yes
      Format settings, ReFrames : 4 frames
      Muxing mode : Container profile=Unknown@4.1
      Codec ID : V_MPEG4/ISO/AVC
      Duration : 2h 15mn
      Bit rate : 2 659 Kbps
      Nominal bit rate : 2 722 Kbps
      Width : 1 280 pixels
      Height : 694 pixels
      Display aspect ratio : 16:9
      Frame rate : 23.976 fps
      Resolution : 8 bits
      Colorimetry : 4:2:0
      Scan type : Progressive
      Bits/(Pixel*Frame) : 0.125
      Stream size : 2.51 GiB (84%)
      Writing library : x264 core 112 r1867 22bfd31
      Encoding settings : cabac=1 / ref=5 / deblock=1:-3:-3 / analyse=0x3:0x113 / me=umh / subme=9 / psy=1 / psy_rd=1.00:0.10 / mixed_ref=1 / me_range=32 / chroma_me=1 / trellis=2 / 8x8dct=1 / cqm=0 / deadzone=21,11 / fast_pskip=0 / chroma_qp_offset=-2 / threads=6 / sliced_threads=0 / nr=0 / decimate=0 / interlaced=0 / constrained_intra=0 / bframes=3 / b_pyramid=1 / b_adapt=2 / b_bias=0 / direct=1 / weightb=1 / open_gop=0 / weightp=2 / keyint=250 / keyint_min=23 / scenecut=40 / intra_refresh=0 / rc_lookahead=40 / rc=2pass / mbtree=1 / bitrate=2722 / ratetol=1.0 / qcomp=0.60 / qpmin=10 / qpmax=51 / qpstep=4 / cplxblur=20.0 / qblur=0.5 / ip_ratio=1.40 / aq=1:1.00
      Language : English
   Audio #2
      ID : 2
      Format : AC-3
      Format/Info : Audio Coding 3
      Codec ID : A_AC3
      Duration : 2h 15mn
      Bit rate mode : Constant
      Bit rate : 448 Kbps
      Channel(s) : 6 channels
      Channel positions : Front: L C R, Surround: L R, LFE
      Sampling rate : 48.0 KHz
      Stream size : 434 MiB (14%)
   Text #3
      ID : 3
      Format : SSA
      Codec ID : S_TEXT/SSA
      Codec ID/Info : Sub Station Alpha
      Title : 上中下英
   Text #4
      ID : 4
      Format : SSA
      Codec ID : S_TEXT/SSA
      Codec ID/Info : Sub Station Alpha
      Title : 上英下中
   Text #5
      ID : 5
      Format : UTF-8
      Codec ID : S_TEXT/UTF8
      Codec ID/Info : UTF-8 Plain Text
      Title : 中文
   Text #6
      ID : 6
      Format : UTF-8
      Codec ID : S_TEXT/UTF8
      Codec ID/Info : UTF-8 Plain Text
      Title : 英文




VIP下载地址
游客,贵宾VIP优先下载立即开通

VIP特权:VIP影视库、优先观看、无广告、免回复、免费下载、专属客服 ... 更多特权






下载地址
游客,如果您要查看本帖隐藏内容请回复,如果您想无广告、免回复、免费下载附件 请开通VIP


最新回复

该用户从未签到

 楼主| 发表于 2011-1-29 22:16:25 | 显示全部楼层
  1. [img=474,608]http://images.blu-ray.com/movies/covers/16765_front.jpg[/img]


  2. ◎英 文 名 A Beautiful Mind
  3. ◎中 文 名 美丽心灵/美丽境界(台)/有你终生美丽(港)
  4. ◎年  代 2002年1月4日
  5. ◎国  家 美国
  6. ◎语  言 英语
  7. ◎IMDb评分 8.0/10
  8. ◎IMDb链接 http://www.imdb.com/title/tt0268978/
  9. ◎片  长 135 mins
  10. ◎类  别 传记 / 剧情
  11. ◎导  演 罗恩·霍华德 Ron Howard
  12. ◎主  演 拉塞尔·克罗 Russell Crowe
  13.       艾德·哈里斯 Ed Harris
  14.       詹妮弗·康纳利 Jennifer Connelly
  15.       克里斯托弗·普卢默 Christopher Plummer
  16.       保罗·贝塔尼 Paul Bettany
  17.       亚当·戈德堡 Adam Goldberg

  18. ◎简  介 
  19.   数学天才约翰尼殊在美国普林斯顿大学求学时就成为老师眼中的问题学生,同窗口中的孤僻少年。约翰愈是受到他人的歧视,愈是激发他找出惊世理论的决心。终于,约翰提出的“平衡理论”推翻了当代经济学之父亚当史密夫150年来的学说,赢得了数学界的另眼相看,也改变了他的一生。

  20.   时值冷战时期,约翰虽然获邀在麻省理工执教鞭。这时,一名情报局人员向约翰招手,要罗致他成为国家解码专家。约翰如愿以偿在政府工作,同时也认识了美丽良善的艾丽诗。二人一拍即合,相识没多久随即闪电结婚。由于工作关系,约翰知道不少政府机密,开始堕进精神分裂状态,不时妄想自己被亲近的人陷害,最后更被送进精神病院接受治疗。在妻子艾丽诗的鼓励下,约翰重新振作,重返普林斯顿大学教书。约翰承认自己精神异常的同时,努力钻研“平衡理论”,终于在 1994年获得诺贝尔经济科学奖。

  21.   本片是前诺贝尔奖得主、著名数学家约翰福布斯(John Forbes Nash Jr.)的传记故事,约翰福布斯不仅是一位数学奇才,私生活也非常耐人寻味:他是一位双性恋者,曾因在男性休息室曝露下体被拘禁,婚姻之外又有了私生子,更绝的是人到中年时竟患上精神分裂症,天才与白痴一线之差,他曾于50年代研究出经济学的“博弈理论”(Game Theory),40年后才获得了诺贝尔经济学奖。

  22.   影片讲述约翰福布斯年纪轻轻就已显露数学天分,一举成名。可是又偏偏患上精神分裂症,在漫长的日子中从痛苦经历寻回自我。经过多年的奋斗,和太太的鼓励,终于抹去生命中的悲剧色彩,更成为诺贝尔奖得主。镜头对准了他和妻子之间的关系以及精神病态恢复正常的过程,为我们展示了约翰福布斯多姿多彩的人生。

  23.   本片荣获8项奥斯卡提名,最终夺得第74届奥斯卡最佳影片、最佳导演、最佳改编剧本和最佳女配角4项大奖。



  24. D:\美丽心灵.mkv
  25.    General
  26.       Complete name : D:\美丽心灵.mkv
  27.       Format : Matroska
  28.       File size : 3.00 GiB
  29.       Duration : 2h 15mn
  30.       Overall bit rate : 3 170 Kbps
  31.       Encoded date : UTC 2011-01-29 02:24:48
  32.       Writing application : mkvmerge v2.9.8 ('C'est le bon') built on Aug 13 2009 12:49:06
  33.       Writing library : libebml v0.7.7 + libmatroska v0.8.1
  34.    Video #1
  35.       ID : 1
  36.       Format : AVC
  37.       Format/Info : Advanced Video Codec
  38.       Format profile : High@L4.1
  39.       Format settings, CABAC : Yes
  40.       Format settings, ReFrames : 4 frames
  41.       Muxing mode : Container profile=Unknown@4.1
  42.       Codec ID : V_MPEG4/ISO/AVC
  43.       Duration : 2h 15mn
  44.       Bit rate : 2 659 Kbps
  45.       Nominal bit rate : 2 722 Kbps
  46.       Width : 1 280 pixels
  47.       Height : 694 pixels
  48.       Display aspect ratio : 16:9
  49.       Frame rate : 23.976 fps
  50.       Resolution : 8 bits
  51.       Colorimetry : 4:2:0
  52.       Scan type : Progressive
  53.       Bits/(Pixel*Frame) : 0.125
  54.       Stream size : 2.51 GiB (84%)
  55.       Writing library : x264 core 112 r1867 22bfd31
  56.       Encoding settings : cabac=1 / ref=5 / deblock=1:-3:-3 / analyse=0x3:0x113 / me=umh / subme=9 / psy=1 / psy_rd=1.00:0.10 / mixed_ref=1 / me_range=32 / chroma_me=1 / trellis=2 / 8x8dct=1 / cqm=0 / deadzone=21,11 / fast_pskip=0 / chroma_qp_offset=-2 / threads=6 / sliced_threads=0 / nr=0 / decimate=0 / interlaced=0 / constrained_intra=0 / bframes=3 / b_pyramid=1 / b_adapt=2 / b_bias=0 / direct=1 / weightb=1 / open_gop=0 / weightp=2 / keyint=250 / keyint_min=23 / scenecut=40 / intra_refresh=0 / rc_lookahead=40 / rc=2pass / mbtree=1 / bitrate=2722 / ratetol=1.0 / qcomp=0.60 / qpmin=10 / qpmax=51 / qpstep=4 / cplxblur=20.0 / qblur=0.5 / ip_ratio=1.40 / aq=1:1.00
  57.       Language : English
  58.    Audio #2
  59.       ID : 2
  60.       Format : AC-3
  61.       Format/Info : Audio Coding 3
  62.       Codec ID : A_AC3
  63.       Duration : 2h 15mn
  64.       Bit rate mode : Constant
  65.       Bit rate : 448 Kbps
  66.       Channel(s) : 6 channels
  67.       Channel positions : Front: L C R, Surround: L R, LFE
  68.       Sampling rate : 48.0 KHz
  69.       Stream size : 434 MiB (14%)
  70.    Text #3
  71.       ID : 3
  72.       Format : SSA
  73.       Codec ID : S_TEXT/SSA
  74.       Codec ID/Info : Sub Station Alpha
  75.       Title : 上中下英
  76.    Text #4
  77.       ID : 4
  78.       Format : SSA
  79.       Codec ID : S_TEXT/SSA
  80.       Codec ID/Info : Sub Station Alpha
  81.       Title : 上英下中
  82.    Text #5
  83.       ID : 5
  84.       Format : UTF-8
  85.       Codec ID : S_TEXT/UTF8
  86.       Codec ID/Info : UTF-8 Plain Text
  87.       Title : 中文
  88.    Text #6
  89.       ID : 6
  90.       Format : UTF-8
  91.       Codec ID : S_TEXT/UTF8
  92.       Codec ID/Info : UTF-8 Plain Text
  93.       Title : 英文


  94. [img=1280,694]http://img.album.pchome.net/54/82/59/86/8179eabb978474edece0f32ef048d02c.JPG[/img]


  95. [img=1280,694]http://img.album.pchome.net/54/82/59/86/74f339cb01cf43dad0b9db2174547b14.JPG[/img]
复制代码

该用户从未签到

发表于 2011-1-29 22:18:25 | 显示全部楼层
这片子很早之前就想看了wang49wang

该用户从未签到

发表于 2011-1-29 22:19:16 | 显示全部楼层
提示: 作者被禁止或删除 内容自动屏蔽

该用户从未签到

发表于 2011-1-29 22:19:55 | 显示全部楼层
多谢分享

该用户从未签到

发表于 2011-1-29 22:20:27 | 显示全部楼层
谢谢楼主,新年好!!!!

签到天数: 11 天

发表于 2011-1-29 22:21:18 | 显示全部楼层
响应原盘压制 积极下载

该用户从未签到

发表于 2011-1-29 22:21:37 | 显示全部楼层
多谢分享

该用户从未签到

发表于 2011-1-29 22:21:50 | 显示全部楼层
喜欢高分大片

签到天数: 7 天

发表于 2011-1-29 22:22:35 | 显示全部楼层
原盘压制好耶

签到天数: 8 天

发表于 2011-1-29 22:22:46 | 显示全部楼层
谢谢楼主

该用户从未签到

发表于 2011-1-29 22:22:57 | 显示全部楼层
天啊~蓝光总算出来了~以前的HD可以洗了

该用户从未签到

发表于 2011-1-29 22:24:14 | 显示全部楼层
很不错的一部老片

该用户从未签到

发表于 2011-1-29 22:26:33 | 显示全部楼层
多谢分享

签到天数: 3 天

发表于 2011-1-29 22:27:12 | 显示全部楼层
非常好的片子,早就想要这个了

您可能喜欢

24小时最新

圣城家园精选

电影合集

下一页 »
返回列表 发新帖
快捷回复 换一组
您需要登录后才可以回帖 登录 | 立即注册

快速回复 返回顶部 返回列表