圣城家园 - BT下载 720P 1080P高清电影下载|字幕组|中英字幕|电视剧|美剧|迅雷下载|高清电影|日剧|韩剧|动漫|游戏|最新电影大片下载

发布新帖
乐于分享,把你的资源分享给全世界!
查看: 53720|回复: 5537

[科幻] [外星人保罗]Paul.2011.extended.720p.Bluray.x264.AC3-CnSCG[中英字幕/2.56G]

    [复制链接]

签到天数: 2 天

发表于 2011-6-16 10:38:37 | 显示全部楼层 |阅读模式
本帖最后由 高清电影补档 于 2017-3-20 14:40 编辑
本片含有众多无良词汇,观看时请确保没有儿童在场。如若不然,造成不良影响,南宫爱莫能助。

外星人保罗.jpg

◎译  名 外星人保罗
◎片  名 Paul
◎年  代 2011
◎国  家 英国/法国/西班牙/美国
◎类  别 喜剧/科幻/冒险
◎语  言 英语
◎字  幕 中英双语
◎IMDB评分  7.3/10 (21,375 votes)
◎IMDB链接  http://www.imdb.com/title/tt1092026/
◎片  长 100 Mins
◎导  演 格雷格·莫托拉 Greg Mottola
◎主  演 西蒙·佩吉 Simon Pegg ....Graeme Willy
      尼克·弗罗斯特 Nick Frost ....Clive Gollings
      塞斯·罗根 Seth Rogen ....Paul (voice)
      西格妮·韦弗 Sigourney Weaver ....Tara
      简·林奇 Jane Lynch ....Pat Stevenson
      克里斯汀·韦格 Kristen Wiig ....Ruth Buggs
      杰森·贝特曼 Jason Bateman ....Special Agent Lorenzo Zoil
      比尔·哈德尔 Bill Hader ....Haggard
      布莱思·丹纳 Blythe Danner ....Tara Walton
      杰弗里·塔伯 Jeffrey Tambor ....Adam Shadowchild
      大卫·科恩查内 David Koechner ....Gus
      杰西·普莱蒙 Jesse Plemons ....Jake
      约翰·卡洛·林奇 John Carroll Lynch ....Moses Buggs
      米娅·斯塔拉德 Mia Stallard ....Young Tara
◎分  级 USA:R
◎制作公司 Big Talk Productions
      Relativity Media [美国]
      Studio Canal [法国] (in association with)
      Working Title Films [英国]
◎发行公司 环球影业 [美国] (2011) (USA) (theatrical)
      United International Pictures (UIP) [新加坡] (2011) (Singapore) (theatrical)
      Universal Pictures Canada [加拿大] (2011) (Canada) (theatrical)
      Universal Pictures International (UPI) (2011) (Spain) (theatrical)
      Universal Pictures International (UPI) (2011) (France) (theatrical)
◎官方网站 http://www.whatispaul.com/
◎预 告 片 http://www.movieweb.com/movie/paul/trailer-2

影片介绍
  《僵尸肖恩》和《热血警探》中的一对活宝西蒙·佩吉、尼克·弗罗斯特联袂编剧、主演。片中二人饰演两名狂热的科幻粉丝,他们来到美国参加Comic-Con并且借机参观一些著名的UFO发现地。而在Comic-Con上他们遇到了一位绿色外星人保罗(塞斯·罗根配音),保罗随即加入了俩人接下来的旅程。外星人的加入也让他们受到了联邦特工(杰森·贝特曼饰)追捕。而俩人还"误打误撞",不知怎么的绑架了一名女孩。女孩的父亲自然也就和联邦特工一起加入到了追捕行动。佩吉和福斯特必须想出办法将外星人保罗安全送回他的宇宙飞船。


一句话评论

比《僵尸肖恩》和《热血警探》的戏路更广也更容易接受,你再也看不到这样的外星人。
--《帝国》

视觉效果上的盛宴、角色塑造令人信服,但搞笑低级了点。
--SFX


幕后制作
  《僵尸肖恩》、《热血警探》成就了导演埃德加·怀特和演员西蒙·佩吉以及尼克·弗罗斯特的铁三角组合,此次两位活宝带着自编自演的电影重装上阵。由于埃德加·怀特忙于拍摄《歪小子斯科特》无法抽身,西蒙·佩吉将自己的这部影片交给了《超级坏》的导演格雷格·莫托拉,外加给保罗配音的赛斯·罗根和杰森·贝特曼,这个四人组又会擦出什么样的火花,确实令人拭目以待。
  顶着铁三角的压力拍摄该片的格莱格·莫特拉表示非常有挑战性,他坦言自己是西蒙·佩吉和尼克·弗罗斯特的粉丝。尽管他还有点紧张和不自信,却也暗自下定决心,不会模仿埃德加的套路。他回顾了许多斯皮尔伯格的电影,例如早期的《飞轮喋血》和《横冲直撞大逃亡》,希望从中吸取一些灵感。他认为这部电影是对70年代科幻电影以及整个科幻电影的致敬,对他而言有着深深的怀旧意味。
  相比导演的压力重重,西蒙却认定格雷格·莫托拉是该片导演的不二人选,因为他本人是电影《超级坏》的超级粉丝,他认为格雷格对独立电影有独到的见解,会将他想要的那种感觉和调调发挥到极致,"他的画面感很强,他想到要把电影拍成斯皮尔伯格的风格的,就凭这一点,我们就知道他已经和我们心意相通了。"

  雨天玩笑成就的电影

  早在2003年剧组拍摄《僵尸肖恩》时,英国下了一个月的雨,预计4天的拍摄任务一直无法完成。备受困扰的西蒙·佩吉和尼克·弗罗斯特有天画了一个外星人的图给制片人Nira,图上注解:"在美国,每个人都是外星人",说这就是他们的下一部电影--外星人公路片。这部电影要在美国拍摄,因为那边每天都是晴天。实际上他们只是说说而已,但Nira却认为这个点子很好,于是在她坚持不懈的督促下,西蒙画出了电影的首个场景图,Nira把图交给了Working Title电影公司的Eric Fellner,Fellner回忆说:"我很期待看到尼克和西蒙继续合作,公路片的本质就是关于探索和发现你从未遇到过的人事物的一次旅程。公路片和外星人喜剧结合在一起的点子真是太棒了。"
  西蒙·佩吉说最初的拍摄动机无非是认为拍摄这样一部独立电影很酷,还带点公路片的感觉,而且主角之一不是真人,是电脑特效做出来的角色,但是故事的剧情又让这个角色变得真实可信。他解释说,片中外星人的概念其实并不是真正意义上的生活在外星球上的人,他认为电影中所有的人都有点外星人的感觉,因为在他们创作时的中心思想是:人们不在属于自己的地方,他们要学会在不属于自己的地方生活。
  因此在动手写剧本之前,西蒙和尼克开始了一次真正意义上的开着RV车环游美国西部之旅,从洛杉矶开始,穿越了几个州之后最后到达内华达。这次旅行对他们的电影创作来说非常值得。西蒙说,通过这次旅行,他们对美国的风土人情有了深刻的了解。另外一个令他们意想不到的发现是,美国版图之大是他们未曾预料到的。尼克说,"看地图的时候我们想,可能这些地方走个3-4天就行了,结果一天10几个小时开下来,只能走300公里,而我们总共要走2000公里。"他们将旅程中的经历写进来剧本,"每天都有新的经历,我们进行了一场真正的冒险,非常重要也相当有趣,没有这次旅行,我们的剧本也写不出来了。"

  尼克·弗罗斯:绿叶变红花

  在以往电影中,担纲重任的非西蒙莫属,而此次尼克·弗罗斯特的戏份吃重,他也乐得甘当绿叶。谈到再次与老搭档尼克合作,西蒙说,"我们合作了十多年,也一直都是朋友,这次的合作是一次有趣的尝试,因为我们的角色之间的互动有些许改变。在埃德加·怀特的电影里,一般我是主角,尼克是配角,而这次我们俩都是主角。尼克的角色克莱夫更主动自信,而我的角色一开始就有点像是个花瓶。"片中两个人饰演的角色都是喜欢漫画的书呆子,其他人眼中的怪人,然而遇上保罗之后,他们的世界将发生翻天覆地的变化。

  "保罗的塑造"

  尽管剧中另一主角保罗的外形由CGI制作完成,但是他的声音必须人性化,Fellner说,"如果保罗是个完完全全的CGI角色,那就没劲了。他是一个在行为上的正常人,只是碰巧长着一张外星人的脸还有一些超能力罢了。经过各项测试之后,我们决定必须要有个演员来主导动画角色,而不是相反。"配音的角色落在了塞斯·罗根的身上。这位美国喜剧明星曾在《超级坏》中跟导演合作过。由于剧中给保罗设定的背景是他在地球上生活了快60年,深受流行文化的影响,因此罗根也提出了自己对角色的看法,他说,"鉴于保罗在地球上生活了那么久,他身上应该融入了一些厌世却又相当淡定的性格,能和一行人的紧张气氛形成强烈的对比。我觉得这帮瞎紧张的书呆子遇上一个像尼尔·杨那样的老嬉皮士,虽饱经沧桑却气定神闲,又不乏对新事物的热情,这样的故事肯定很精彩。"
  西蒙和尼克认为,"我们想创造一个真实可信,能让大家产生共鸣的角色,他很有分量也相当有存在感,是一个你完全能接受的人。他算是一个英雄,因此他必须很惊艳。"


幕后花絮

·由于档期冲突,西蒙·佩吉与昆汀·塔伦蒂诺的电影《无良杂种》失之交臂。

·该片剧本由这两位演员操刀,导演格莱格·莫特拉自称是这对英国喜剧搭档的粉丝,并且表示很喜欢这个题材。

·为了拍摄圣地亚哥动漫大会的场景,导演格雷格·莫托拉在阿尔伯克基会议中心重造了这一盛大展会。但是为了避免引起更多不便,电影中圣地亚哥动漫大会的内景进行了一些改动,而街景仍采用实地拍摄。

·Joe Lo Trugllio是剧中Paul的替身,也是本片中唯一一个由CGI创作的角色。

·Paul的外形和动作习惯上(例如抽烟,懒人型)都神似《特工老爹》中的外星人Roger,这点颇受评论争议。

·电影预期拍摄天数为49天。

·西蒙·佩吉认为拍摄中最讽刺的事情莫过于,他们为了避开英国糟糕的雨天而选择到天气好的美国拍摄,结果新墨西哥州的天气竟然比英国还要差,剧组每隔一天都要因为雷雨耽误好几个小时。

·尼克·弗罗斯特地为角色留了齐肩的长发。

·在尼克和西蒙的美国西部穿越之旅中,由于遇上大雪气温骤降,他们的RV车电池被冻坏了。


  General
    Format : Matroska
    File size : 2.56 GiB
    Duration : 1h 49mn
    Overall bit rate : 3 359 Kbps
    Encoded date : UTC 2011-06-16 02:18:38
    Writing application : mkvmerge v4.7.0 ('Just Like You Imagined') built on Apr 21 2011 01:13:14
    Writing library : libebml v1.2.0 + libmatroska v1.1.0
  Video #1
    ID : 1
    Format : AVC
    Format/Info : Advanced Video Codec
    Format profile : High@L4.1
    Format settings, CABAC : Yes
    Format settings, ReFrames : 3 frames
    Format settings, GOP : M=1, N=16
    Muxing mode : Header stripping
    Codec ID : V_MPEG4/ISO/AVC
    Duration : 1h 49mn
    Bit rate mode : Variable
    Bit rate : 2 909 Kbps
    Maximum bit rate : 14.0 Mbps
    Width : 1 280 pixels
    Height : 720 pixels
    Display aspect ratio : 16:9
    Frame rate : 23.976 fps
    Color space : YUV
    Chroma subsampling : 4:2:0
    Bit depth : 8 bits
    Scan type : Progressive
    Bits/(Pixel*Frame) : 0.132
    Stream size : 2.17 GiB (85%)
    Writing library : x264 core 115 r1995 c1e60b9
    Encoding settings : cabac=1 / ref=4 / deblock=1:-3:-3 / analyse=0x3:0x113 / me=umh / subme=9 / psy=1 / psy_rd=1.00:0.10 / mixed_ref=1 / me_range=32 / chroma_me=1 / trellis=2 / 8x8dct=1 / cqm=0 / deadzone=21,11 / fast_pskip=0 / chroma_qp_offset=-2 / threads=3 / sliced_threads=0 / slices=4 / nr=0 / decimate=0 / interlaced=0 / bluray_compat=0 / constrained_intra=0 / bframes=3 / b_pyramid=1 / b_adapt=2 / b_bias=0 / direct=1 / weightb=1 / open_gop=0 / weightp=0 / keyint=24 / keyint_min=2 / scenecut=40 / intra_refresh=0 / rc_lookahead=24 / rc=2pass / mbtree=1 / bitrate=2909 / ratetol=1.0 / qcomp=0.60 / qpmin=0 / qpmax=69 / qpstep=4 / cplxblur=20.0 / qblur=0.5 / vbv_maxrate=14000 / vbv_bufsize=14500 / nal_hrd=vbr / ip_ratio=1.40 / aq=1:1.00
    Language : English
  Audio #2
    ID : 2
    Format : AC-3
    Format/Info : Audio Coding 3
    Mode extension : CM (complete main)
    Muxing mode : Header stripping
    Codec ID : A_AC3
    Duration : 1h 49mn
    Bit rate mode : Constant
    Bit rate : 448 Kbps
    Channel(s) : 6 channels
    Channel positions : Front: L C R, Side: L R, LFE
    Sampling rate : 48.0 KHz
    Bit depth : 16 bits
    Compression mode : Lossy
    Stream size : 350 MiB (13%)
  Text #3
    ID : 3
    Format : SSA
    Codec ID : S_TEXT/SSA
    Codec ID/Info : Sub Station Alpha
    Compression mode : Lossless
    Title : 上英下中
    Language : Chinese
  Text #4
    ID : 4
    Format : SSA
    Codec ID : S_TEXT/SSA
    Codec ID/Info : Sub Station Alpha
    Compression mode : Lossless
    Title : 上英下中
    Language : Chinese
  Text #5
    ID : 5
    Format : SSA
    Codec ID : S_TEXT/SSA
    Codec ID/Info : Sub Station Alpha
    Compression mode : Lossless
    Title : 中文字幕
    Language : Chinese
  Text #6
    ID : 6
    Format : UTF-8
    Codec ID : S_TEXT/UTF8
    Codec ID/Info : UTF-8 Plain Text
    Title : 英文字幕
    Language : English








支持圣城家园,累积每一份鼓励 ♥ 马上开通VIP,专享VIP影视资源,优先观看!VIP影视库

VIP特权:专享资源、优先观看、无广告、免回复、免费下载、专属客服 ... 更多特权

游客,查看VIP资源下载,请开通VIP:VIP传送门


游客,如果您要查看本帖隐藏内容请回复,如果您想无广告、免回复、免费下载附件请开通VIP:VIP传送门

[/hide]

评分

参与人数 1圣元 +100 收起 理由
kz911 + 100 谢谢你,圣城有你更精彩

查看全部评分

最新回复

签到天数: 3 天

发表于 2011-6-16 10:44:18 | 显示全部楼层
谢谢分享,支持。

该用户从未签到

发表于 2011-6-16 10:44:47 | 显示全部楼层
准时来此区报到查看新片。支持家园的电影。

该用户从未签到

发表于 2011-6-16 10:47:14 | 显示全部楼层
应该值得下载一看,感谢楼主的分享

签到天数: 67 天

发表于 2011-6-16 11:09:57 | 显示全部楼层
谢谢楼主的分享。

该用户从未签到

发表于 2011-6-16 11:10:21 | 显示全部楼层
千盼万盼!!多谢分享啦!!!!

该用户从未签到

发表于 2011-6-16 11:10:27 | 显示全部楼层
谢谢发片···

签到天数: 119 天

发表于 2011-6-16 11:31:18 | 显示全部楼层
谢谢楼主分享

签到天数: 5 天

发表于 2011-6-16 11:34:34 | 显示全部楼层
感谢楼主分享

该用户从未签到

发表于 2011-6-16 11:38:46 | 显示全部楼层
楼主辛苦了!谢谢

签到天数: 45 天

发表于 2011-6-16 11:43:25 | 显示全部楼层
支持新片,谢谢。

签到天数: 31 天

发表于 2011-6-16 12:19:36 | 显示全部楼层
感谢分享!!

该用户从未签到

发表于 2011-6-16 12:21:25 | 显示全部楼层
谢谢楼主的无私分享

该用户从未签到

发表于 2011-6-16 12:23:33 | 显示全部楼层
英国片有内涵些

该用户从未签到

发表于 2011-6-16 12:24:22 | 显示全部楼层
下来看看

24小时最新

Top10精品合集

原创推荐

赞助广告

您需要登录后才可以回帖 登录 | 立即注册

使用帮助|捐助家园|开通VIP|知识产权|Archiver| 圣城家园电影下载

©Cnscg.com 圣城家园|不良信息举报: hdscgcom@gmail.com

快速回复 返回顶部 返回列表