圣城家园 - BT下载 720P 1080P高清电影下载|字幕组|中英字幕|电视剧|美剧|迅雷下载|高清电影|日剧|韩剧|动漫|游戏|最新电影大片下载

发布新帖
乐于分享,把你的资源分享给全世界!
查看: 22183|回复: 1294

[电影] [布魯娜.瑟非斯丁]Bruna.Surfistinha.2011.BluRay.720p.AC3.x264-CnSCG[中英字幕]

    [复制链接]

签到天数: 33 天

发表于 2011-8-12 18:17:08 | 显示全部楼层 |阅读模式
布魯娜·瑟非斯丁.jpg

◎译  名 布魯娜·瑟非斯丁
◎片  名 Bruna Surfistinha/Little Surfer Girl
◎年  代 2011
◎国  家 巴西
◎类  别 剧情
◎语  言 葡萄牙语
◎IMDB评分 6.2/10 (497 votes)
◎IMDB链接 http://www.imdb.com/title/tt1587828/
◎片  长 107 mins 38 seconds
◎导  演 马库斯·巴尔蒂尼 Marcus Baldini
◎主  演 黛博拉·瑟科 Deborah Secco  ....Raquel / Bruna Surfistinha
                加西亚·门德斯 Cássio Gabus Mendes  ....Huldson
                德利卡·莫莱斯 Drica Moraes  ....Larissa
                法比奥拉·纳斯门托 Fabiula Nascimento  ....Janine
                克里斯蒂娜·拉戈 Cristina Lago  ....Gabi
                古塔·鲁伊兹 Guta Ruiz  ....Carol
                Clarisse Abujamra  ....Celeste
                卢西亚诺·切诺里 Luciano Chirolli  ....Otto
                Sérgio Guizé  ....Rodrigo
                Simone Iliescu  ....Yasmin
                érika Puga  ....Mel
                Brenda Lígia  ....Kelly
                Gustavo Machado  ....Miguel
                Juliano Cazarré  ....Gustavo
                Rodrigo Dorado  ....Rominho
                Roberto Audio  ....Gian
                Plínio Soares  ....Publicitário
                Sidney Rodrigues  ....Cliente Tomás
                Raquel Pacheco  ....Waitress
◎简  介

   妓女变畅销作家
巴西第一名妓飞上枝头的真实故事

  她17岁那年,离开了优渥的家庭生活,在圣保罗一家俱乐部工作,成了应召女郎。

  过了3年又10天之后,她即将迈入21岁,也准备退休了。

  这时的她,存够了钱,想去唸大学,遇上她的真命天子,生命也开始不一样了!

  她是巴西妓女「布鲁娜」。从事妓女行业以来,便决定要当个「不平凡」的妓女!她和其他的妓女不一样,她不想一辈子浑浑噩噩地过下去,只想赚足了钱、实现梦想便走人。她以企业手法经营自己的工作,并在网络上直率且大胆的公开与男人、女人、夫妻的性爱细节,完整呈现个人皮肉生涯的点点滴滴,这让她的部落格立即爆红,每日点阅人次超过五万人,成功打响知名度,更成为世界各国争相报导的话题人物。

  如今,布鲁娜将下海三年多的经历集结成书,不仅在巴西创下惊人的销售数字,更让她红遍国际,跻身畅销名家之列。布鲁娜的故事甚至大幅登上《纽约时报》,造成极大的回响:「这部作品大胆而深入,彻底颠覆了我们对巴西文化的认知,引发人们对于性行为与其价值的热烈激辩!」

  布鲁娜不把禁忌当顾忌,诚实揭露女人的身体经验,详实叙述男人召妓的复杂心理。她直言无讳的呈现应召女郎的生活,肯定了女人对性与欲望的追求,更为我们揭开了一个不曾袒露的祕密世界。


〈作者简介〉

Bruna Surfistinha(布鲁娜.瑟非斯丁)

  本名Raquel Pacheco(瑞可儿.帕契寇),在即将离开妓女这个行业时,把三年来在网络部落格上发表接客的经历集结成书,一夕成名,成为二十一世纪全球最知名的妓女。

  妓女这个行业遍行在世界各个角落,但为何记载了布鲁娜接客细节的部落格可以在网络上造成轰动?而她的故事更成为国际知名媒体争相报导的焦点?或许,由布鲁娜说出的这番话最能回应她这部作品吸引读者的理由:「我不会愚蠢到跟随某些评论家所说的,认为这本书最吸引读者的地方,在于它揭露了一位妓女的祕密生活,因为这个『世界上最古老的行业』根本没有祕密可言。只能说,我把虚伪放在一旁,让读者去面对此书所呈现的真正祕密。」

  而布鲁娜所谓的「祕密」,其实也就是指:在**的背后,散发出足以吸引男性的那种不可言喻的气息。

  有趣的是,布鲁娜在书里除了说她的故事,甚至以她「阅人无数」的经验,在书末教起了全天下女性如何改进床上功夫,以增进男女之间的闺房情趣。因为这也是她想奉劝全天下女性的地方:或许先了解你的男人为何会去嫖妓,远比去斥责这个行业的存在来得重要。

E:\114文件备份\布魯娜·瑟非斯丁Bruna.Surfistinha.2011.BluRay.720p.AC3.x264-CnSCG\布魯娜·瑟非斯丁Bruna.Surfistinha.2011.BluRay.720p.AC3.x264-CnSCG.mkv
  General
    Complete name : E:\114文件备份\布魯娜·瑟非斯丁Bruna.Surfistinha.2011.BluRay.720p.AC3.x264-CnSCG\布魯娜·瑟非斯丁Bruna.Surfistinha.2011.BluRay.720p.AC3.x264-CnSCG.mkv
    Format : Matroska
    File size : 2.19 GiB
    Duration : 1h 47mn
    Overall bit rate : 2 907 Kbps
    Encoded date : UTC 2011-08-11 15:52:20
    Writing application : mkvmerge v3.0.0 ('Hang up your Hang-Ups') 编译于 Dec 12 2009 15:20:35
    Writing library : libebml v0.7.9 + libmatroska v0.8.1
  Video #1
    ID : 1
    Format : AVC
    Format/Info : Advanced Video Codec
    Format profile : Main@L3.0
    Format settings, CABAC : Yes
    Format settings, ReFrames : 4 frames
    Muxing mode : Container profile=Unknown@3.0
    Codec ID : V_MPEG4/ISO/AVC
    Duration : 1h 47mn
    Bit rate : 2 401 Kbps
    Nominal bit rate : 2 458 Kbps
    Width : 1 280 pixels
    Height : 690 pixels
    Display aspect ratio : 1.855
    Frame rate : 23.976 fps
    Resolution : 8 bits
    Colorimetry : 4:2:0
    Scan type : Progressive
    Bits/(Pixel*Frame) : 0.113
    Stream size : 1.80 GiB (83%)
    Writing library : x264 core 115 r1995 c1e60b9
    Encoding settings : cabac=1 / ref=2 / deblock=1:-3:-2 / analyse=0x1:0x111 / me=umh / subme=8 / psy=1 / psy_rd=1.00:0.10 / mixed_ref=1 / me_range=24 / chroma_me=1 / trellis=2 / 8x8dct=0 / cqm=0 / deadzone=21,11 / fast_pskip=0 / chroma_qp_offset=-2 / threads=6 / sliced_threads=0 / nr=0 / decimate=0 / interlaced=0 / bluray_compat=0 / constrained_intra=0 / bframes=3 / b_pyramid=2 / b_adapt=2 / b_bias=0 / direct=1 / weightb=1 / open_gop=0 / weightp=2 / keyint=250 / keyint_min=23 / scenecut=40 / intra_refresh=0 / rc_lookahead=40 / rc=2pass / mbtree=1 / bitrate=2458 / ratetol=1.0 / qcomp=0.60 / qpmin=10 / qpmax=51 / qpstep=4 / cplxblur=20.0 / qblur=0.5 / vbv_maxrate=10000 / vbv_bufsize=10000 / nal_hrd=none / ip_ratio=1.40 / aq=1:1.00
    Language : English
  Audio #2
    ID : 2
    Format : AC-3
    Format/Info : Audio Coding 3
    Codec ID : A_AC3
    Duration : 1h 47mn
    Bit rate mode : Constant
    Bit rate : 448 Kbps
    Channel(s) : 6 channels
    Channel positions : Front: L C R, Surround: L R, LFE
    Sampling rate : 48.0 KHz
    Stream size : 345 MiB (15%)
  Text #3
    ID : 3
    Format : SSA
    Codec ID : S_TEXT/SSA
    Codec ID/Info : Sub Station Alpha
    Title : 中英字幕
  Text #4
    ID : 4
    Format : SSA
    Codec ID : S_TEXT/SSA
    Codec ID/Info : Sub Station Alpha
    Title : 英中字幕
  Text #5
    ID : 5
    Format : UTF-8
    Codec ID : S_TEXT/UTF8
    Codec ID/Info : UTF-8 Plain Text
    Title : 中文字幕
  Text #6
    ID : 6
    Format : UTF-8
    Codec ID : S_TEXT/UTF8
    Codec ID/Info : UTF-8 Plain Text
    Title : 英文字幕






下载地址
游客,如果您要查看本帖隐藏内容请回复,如果您想无广告、免回复、免费下载附件请开通VIP:VIP传送门



最新回复

该用户从未签到

发表于 2011-8-12 18:18:52 | 显示全部楼层
没看到种子!!!

签到天数: 1 天

发表于 2011-8-12 18:25:50 | 显示全部楼层
谢谢发片

签到天数: 33 天

 楼主| 发表于 2011-8-12 18:26:03 | 显示全部楼层


  1. [url=http://hd.cnscg.com/][img]http://i26.fastpic.ru/big/2011/0716/57/54f5c3e0a0dfc1dcef4fff6b488a0a57.png[/img][/url]

  2. ◎译  名 布魯娜·瑟非斯丁
  3. ◎片  名 Bruna Surfistinha/Little Surfer Girl
  4. ◎年  代 2011
  5. ◎国  家 巴西
  6. ◎类  别 剧情
  7. ◎语  言 葡萄牙语
  8. ◎IMDB评分 6.2/10 (497 votes)
  9. ◎IMDB链接 [url=http://www.imdb.com/title/tt1587828/][color=#0000ff]http://www.imdb.com/title/tt1587828/[/color][/url]
  10. ◎片  长 107 mins 38 seconds
  11. ◎导  演 马库斯·巴尔蒂尼 Marcus Baldini
  12. ◎主  演 黛博拉·瑟科 Deborah Secco  ....Raquel / Bruna Surfistinha
  13.                 加西亚·门德斯 Cássio Gabus Mendes  ....Huldson
  14.                 德利卡·莫莱斯 Drica Moraes  ....Larissa
  15.                 法比奥拉·纳斯门托 Fabiula Nascimento  ....Janine
  16.                 克里斯蒂娜·拉戈 Cristina Lago  ....Gabi
  17.                 古塔·鲁伊兹 Guta Ruiz  ....Carol
  18.                 Clarisse Abujamra  ....Celeste
  19.                 卢西亚诺·切诺里 Luciano Chirolli  ....Otto
  20.                 Sérgio Guizé  ....Rodrigo
  21.                 Simone Iliescu  ....Yasmin
  22.                 Érika Puga  ....Mel
  23.                 Brenda Lígia  ....Kelly
  24.                 Gustavo Machado  ....Miguel
  25.                 Juliano Cazarré  ....Gustavo
  26.                 Rodrigo Dorado  ....Rominho
  27.                 Roberto Audio  ....Gian
  28.                 Plínio Soares  ....Publicitário
  29.                 Sidney Rodrigues  ....Cliente Tomás
  30.                 Raquel Pacheco  ....Waitress
  31. ◎简  介

  32.    妓女变畅销作家
  33. 巴西第一名妓飞上枝头的真实故事

  34.   她17岁那年,离开了优渥的家庭生活,在圣保罗一家俱乐部工作,成了应召女郎。

  35.   过了3年又10天之后,她即将迈入21岁,也准备退休了。

  36.   这时的她,存够了钱,想去唸大学,遇上她的真命天子,生命也开始不一样了!

  37.   她是巴西妓女「布鲁娜」。从事妓女行业以来,便决定要当个「不平凡」的妓女!她和其他的妓女不一样,她不想一辈子浑浑噩噩地过下去,只想赚足了钱、实现梦想便走人。她以企业手法经营自己的工作,并在网络上直率且大胆的公开与男人、女人、夫妻的性爱细节,完整呈现个人皮肉生涯的点点滴滴,这让她的部落格立即爆红,每日点阅人次超过五万人,成功打响知名度,更成为世界各国争相报导的话题人物。

  38.   如今,布鲁娜将下海三年多的经历集结成书,不仅在巴西创下惊人的销售数字,更让她红遍国际,跻身畅销名家之列。布鲁娜的故事甚至大幅登上《纽约时报》,造成极大的回响:「这部作品大胆而深入,彻底颠覆了我们对巴西文化的认知,引发人们对于性行为与其价值的热烈激辩!」

  39.   布鲁娜不把禁忌当顾忌,诚实揭露女人的身体经验,详实叙述男人召妓的复杂心理。她直言无讳的呈现应召女郎的生活,肯定了女人对性与欲望的追求,更为我们揭开了一个不曾袒露的祕密世界。


  40. 〈作者简介〉

  41. Bruna Surfistinha(布鲁娜.瑟非斯丁)

  42.   本名Raquel Pacheco(瑞可儿.帕契寇),在即将离开妓女这个行业时,把三年来在网络部落格上发表接客的经历集结成书,一夕成名,成为二十一世纪全球最知名的妓女。

  43.   妓女这个行业遍行在世界各个角落,但为何记载了布鲁娜接客细节的部落格可以在网络上造成轰动?而她的故事更成为国际知名媒体争相报导的焦点?或许,由布鲁娜说出的这番话最能回应她这部作品吸引读者的理由:「我不会愚蠢到跟随某些评论家所说的,认为这本书最吸引读者的地方,在于它揭露了一位妓女的祕密生活,因为这个『世界上最古老的行业』根本没有祕密可言。只能说,我把虚伪放在一旁,让读者去面对此书所呈现的真正祕密。」

  44.   而布鲁娜所谓的「祕密」,其实也就是指:在**的背后,散发出足以吸引男性的那种不可言喻的气息。

  45.   有趣的是,布鲁娜在书里除了说她的故事,甚至以她「阅人无数」的经验,在书末教起了全天下女性如何改进床上功夫,以增进男女之间的闺房情趣。因为这也是她想奉劝全天下女性的地方:或许先了解你的男人为何会去嫖妓,远比去斥责这个行业的存在来得重要。

  46. E:\114文件备份\布魯娜·瑟非斯丁Bruna.Surfistinha.2011.BluRay.720p.AC3.x264-CnSCG\布魯娜·瑟非斯丁Bruna.Surfistinha.2011.BluRay.720p.AC3.x264-CnSCG.mkv
  47.   General
  48.     Complete name : E:\114文件备份\布魯娜·瑟非斯丁Bruna.Surfistinha.2011.BluRay.720p.AC3.x264-CnSCG\布魯娜·瑟非斯丁Bruna.Surfistinha.2011.BluRay.720p.AC3.x264-CnSCG.mkv
  49.     Format : Matroska
  50.     File size : 2.19 GiB
  51.     Duration : 1h 47mn
  52.     Overall bit rate : 2 907 Kbps
  53.     Encoded date : UTC 2011-08-11 15:52:20
  54.     Writing application : mkvmerge v3.0.0 ('Hang up your Hang-Ups') 编译于 Dec 12 2009 15:20:35
  55.     Writing library : libebml v0.7.9 + libmatroska v0.8.1
  56.   Video #1
  57.     ID : 1
  58.     Format : AVC
  59.     Format/Info : Advanced Video Codec
  60.     Format profile : [url=mailto:Main@L3.0]Main@L3.0[/url]
  61.     Format settings, CABAC : Yes
  62.     Format settings, ReFrames : 4 frames
  63.     Muxing mode : Container profile=Unknown@3.0
  64.     Codec ID : V_MPEG4/ISO/AVC
  65.     Duration : 1h 47mn
  66.     Bit rate : 2 401 Kbps
  67.     Nominal bit rate : 2 458 Kbps
  68.     Width : 1 280 pixels
  69.     Height : 690 pixels
  70.     Display aspect ratio : 1.855
  71.     Frame rate : 23.976 fps
  72.     Resolution : 8 bits
  73.     Colorimetry : 4:2:0
  74.     Scan type : Progressive
  75.     Bits/(Pixel*Frame) : 0.113
  76.     Stream size : 1.80 GiB (83%)
  77.     Writing library : x264 core 115 r1995 c1e60b9
  78.     Encoding settings : cabac=1 / ref=2 / deblock=1:-3:-2 / analyse=0x1:0x111 / me=umh / subme=8 / psy=1 / psy_rd=1.00:0.10 / mixed_ref=1 / me_range=24 / chroma_me=1 / trellis=2 / 8x8dct=0 / cqm=0 / deadzone=21,11 / fast_pskip=0 / chroma_qp_offset=-2 / threads=6 / sliced_threads=0 / nr=0 / decimate=0 / interlaced=0 / bluray_compat=0 / constrained_intra=0 / bframes=3 / b_pyramid=2 / b_adapt=2 / b_bias=0 / direct=1 / weightb=1 / open_gop=0 / weightp=2 / keyint=250 / keyint_min=23 / scenecut=40 / intra_refresh=0 / rc_lookahead=40 / rc=2pass / mbtree=1 / bitrate=2458 / ratetol=1.0 / qcomp=0.60 / qpmin=10 / qpmax=51 / qpstep=4 / cplxblur=20.0 / qblur=0.5 / vbv_maxrate=10000 / vbv_bufsize=10000 / nal_hrd=none / ip_ratio=1.40 / aq=1:1.00
  79.     Language : English
  80.   Audio #2
  81.     ID : 2
  82.     Format : AC-3
  83.     Format/Info : Audio Coding 3
  84.     Codec ID : A_AC3
  85.     Duration : 1h 47mn
  86.     Bit rate mode : Constant
  87.     Bit rate : 448 Kbps
  88.     Channel(s) : 6 channels
  89.     Channel positions : Front: L C R, Surround: L R, LFE
  90.     Sampling rate : 48.0 KHz
  91.     Stream size : 345 MiB (15%)
  92.   Text #3
  93.     ID : 3
  94.     Format : SSA
  95.     Codec ID : S_TEXT/SSA
  96.     Codec ID/Info : Sub Station Alpha
  97.     Title : 中英字幕
  98.   Text #4
  99.     ID : 4
  100.     Format : SSA
  101.     Codec ID : S_TEXT/SSA
  102.     Codec ID/Info : Sub Station Alpha
  103.     Title : 英中字幕
  104.   Text #5
  105.     ID : 5
  106.     Format : UTF-8
  107.     Codec ID : S_TEXT/UTF8
  108.     Codec ID/Info : UTF-8 Plain Text
  109.     Title : 中文字幕
  110.   Text #6
  111.     ID : 6
  112.     Format : UTF-8
  113.     Codec ID : S_TEXT/UTF8
  114.     Codec ID/Info : UTF-8 Plain Text
  115.     Title : 英文字幕


  116. [url=http://hd.cnscg.com/][img]http://img2081.poco.cn/mypoco/myphoto/20110812/18/57480336201108121811183223365539232_002.jpg[/img][/url]


  117. [quote][b][size=5][color=#ff0000]SCG-720PG团队成员长期招募,有意者请加QQ群:41708726.非诚勿扰,谢谢合作!

  118. [/color][/size][/b][url=http://hd.cnscg.com/thread-748361-1-1.html][size=5][color=#0000ff][b]http://hd.cnscg.com/thread-748361-1-1.html[/b][/color][/size][/url][/quote]

复制代码

该用户从未签到

发表于 2011-8-12 18:29:39 | 显示全部楼层
提示: 作者被禁止或删除 内容自动屏蔽

签到天数: 477 天

发表于 2011-8-12 18:33:16 | 显示全部楼层
感谢分享巴西新片:lol

签到天数: 104 天

 成长值: 16405

发表于 2011-8-12 18:38:48 | 显示全部楼层
谢谢楼主

签到天数: 1 天

发表于 2011-8-12 18:48:17 | 显示全部楼层
早就听说这部片的大名了,谢谢楼主的分享!!

签到天数: 125 天

发表于 2011-8-12 18:49:53 | 显示全部楼层
截图很吸引眼球哦,勇敢的下载来看看

签到天数: 414 天

发表于 2011-8-12 18:53:01 | 显示全部楼层
看起来不错
前排支持

签到天数: 14 天

发表于 2011-8-12 19:01:08 | 显示全部楼层
难道又是一部探讨边缘人物的电影?

该用户从未签到

发表于 2011-8-12 19:06:09 | 显示全部楼层
不错的影片,欣赏@

签到天数: 146 天

发表于 2011-8-12 19:07:23 | 显示全部楼层
谢谢楼主发片分享。。。。

该用户从未签到

发表于 2011-8-12 19:09:58 | 显示全部楼层
谢谢楼主,下来看看

该用户从未签到

发表于 2011-8-12 19:17:48 | 显示全部楼层
不错,有内容,谢谢

24小时最新

Top10精品合集

原创推荐

赞助广告

快捷回复 换一组
您需要登录后才可以回帖 登录 | 立即注册

快速回复 返回顶部 返回列表